Торрент файл
скачать торрент магнет ссылка Добавлен: 25 июн 2014, 21:16
Размер: 294.91 МБ
Сидеров: 0
Личеров: 4
Автор

СообщениеДобавлено: 25 июн 2014, 21:16 

Не в сети
Дата регистрации:
27 апр 2014, 21:05
Спасибо: 8 / 0
Сообщения: 61
Как правильно убивают в тюрьме Фильм о фильме "Побег из Шоушенка" (Алексей Меняйлов)

Перевод: Не требуется, cубтитры: отсутствуют
Формат: WEBRip, AVI, H264, MP3
Страна: Россия
Режиссер: Алексей Меняйлов
Жанр: Фильм о фильме
Продолжительность: 00:25:08
Год выпуска: 2013
Описание: А ведь только при правильных, то есть уважительных, отношениях со старым лагерником, Энди Дюфрейн мог составить успешный план. А впоследствии совершить побег. Старый лагерник – это вовсе не носитель памяти об огромном числе событий из жизни тюрьмы, а особый строй психики, опираясь на который единственно и можно надеяться на успех.
Видео: 720x576 (1.25:1), 25 fps, Intel ITU H.264, 1500 kbps avg, 0.14 bit/pixel
Аудио: 44.100 kHz, MPEG Layer 3, 2 ch, 128 kbps avg
Общее
Формат : AVI
Формат/Информация : Audio Video Interleave
Размер файла : 295 Мбайт
Продолжительность : 25 м.
Режим общего битрейта : Постоянный
Общий поток : 1640 Кбит/сек

Видео
Идентификатор : 0
Формат : AVC
Формат/Информация : Advanced Video Codec
Профиль формата : Main@L3.0
Параметр CABAC формата : Нет
Параметр ReFrames формата : 1 кадр
Параметр GOP формата : M=1, N=12
Идентификатор кодека : H264
Продолжительность : 25 м.
Вид битрейта : Постоянный
Битрейт : 1500 Кбит/сек
Ширина : 720 пикселей
Высота : 576 пикселей
Соотношение сторон : 16:9
Соотношение сторон в оригинале : 16:9
Частота кадров : 25,000 кадров/сек
Стандарт вещания : PAL
Цветовое пространство : YUV
Субдискретизация насыщенности : 4:2:0
Битовая глубина : 8 бит
Тип развёртки : Прогрессивная
Бит/(Пиксели*Кадры) : 0.145
Размер потока : 270 Мбайт (91%)

Аудио
Идентификатор : 1
Формат : MPEG Audio
Версия формата : Version 1
Профиль формата : Layer 3
Режим : Joint stereo
Расширение режима : MS Stereo
Идентификатор кодека : 55
Идентификатор кодека/Подсказка : MP3
Продолжительность : 25 м.
Вид битрейта : Постоянный
Битрейт : 128 Кбит/сек
Каналы : 2 канала
Частота : 44,1 КГц
Метод сжатия : С потерями
Размер потока : 23,0 Мбайт (8%)
Выравнивание : Соединение по промежуткам
Продолжительность промежутка : 26 мс. (0,65 видеокадр)
Библиотека кодирования : LAME3.98









реклама партнёра


Вернуться к началу
 Профиль Отправить личное сообщение  
 
   Похожие торренты   Автор   Торрент   Размер 
В этой теме нет новых непрочитанных сообщений. Как правильно смеяться над президентом ("Игрушка", 1976, Франсис Вебер, Пьер Ришар) Меняйлов [2011, фильм о фильме, WEBRip]

vairgin

1 | 2

401.55 МБ

В этой теме нет новых непрочитанных сообщений. Пленные америкосы: позорные детали ("Война Харта") Меняйлов [2013, Фильм о фильме, WEBRip]

vairgin

0 | 3

400.09 МБ

В этой теме нет новых непрочитанных сообщений. Херхор ("Фараон" Ежи Кавалерович) Алексей Меняйлов [2012, психологический анализ фильма, WEBRip] фильм о фильме

vairgin

7 | 3

1.64 ГБ

В этой теме нет новых непрочитанных сообщений. Как девушке выиграть свой первый бой (Жанна Д’Арк / Joan of Arc, Люк Бессон, 1999) Меняйлов [2013, Фильм о фильме, HDRip]

vairgin

0 | 3

439.73 МБ

В этой теме нет новых непрочитанных сообщений. Скотина... Скотина, гад, сука! По фильму "Трюкач". (Меняйлов) [2012, Анализ ключевых эпизодов фильма, WEBRip] фильм о фильме

vairgin

0 | 3

2.05 ГБ

В этой теме нет новых непрочитанных сообщений. Аватар. Армия вторжения на Пандору Алексей Меняйлов[Фильм о фильме,2012] DVDRip

vairgin

0 | 3

547.53 МБ

В этой теме нет новых непрочитанных сообщений. Территория Джа [+клип+фильм о фильме] (Алексей Пантелеев) [Комедия, Фантастика, Фэнтези, 2015] HDRip 1080p [релиз от автора]

Dracon

176 | 53

8.15 ГБ


Начать новую тему Ответить на тему  [ 1 сообщение ] 




Для Мосгорсуда, Роскомнадзора и рекламодателей:: mosgorsud-torrent[собачка]yandex.ru