Торрент файл
скачать торрент магнет ссылка Добавлен: 25 июн 2014, 21:16
Размер: 294.91 МБ
Сидеров: 0
Личеров: 4
Автор

СообщениеДобавлено: 25 июн 2014, 21:16 

Не в сети
Дата регистрации:
27 апр 2014, 21:05
Спасибо: 11 / 0
Сообщения: 65
Как правильно убивают в тюрьме Фильм о фильме "Побег из Шоушенка" (Алексей Меняйлов)

Перевод: Не требуется, cубтитры: отсутствуют
Формат: WEBRip, AVI, H264, MP3
Страна: Россия
Режиссер: Алексей Меняйлов
Жанр: Фильм о фильме
Продолжительность: 00:25:08
Год выпуска: 2013
Описание: А ведь только при правильных, то есть уважительных, отношениях со старым лагерником, Энди Дюфрейн мог составить успешный план. А впоследствии совершить побег. Старый лагерник – это вовсе не носитель памяти об огромном числе событий из жизни тюрьмы, а особый строй психики, опираясь на который единственно и можно надеяться на успех.
Видео: 720x576 (1.25:1), 25 fps, Intel ITU H.264, 1500 kbps avg, 0.14 bit/pixel
Аудио: 44.100 kHz, MPEG Layer 3, 2 ch, 128 kbps avg
Общее
Формат : AVI
Формат/Информация : Audio Video Interleave
Размер файла : 295 Мбайт
Продолжительность : 25 м.
Режим общего битрейта : Постоянный
Общий поток : 1640 Кбит/сек

Видео
Идентификатор : 0
Формат : AVC
Формат/Информация : Advanced Video Codec
Профиль формата : Main@L3.0
Параметр CABAC формата : Нет
Параметр ReFrames формата : 1 кадр
Параметр GOP формата : M=1, N=12
Идентификатор кодека : H264
Продолжительность : 25 м.
Вид битрейта : Постоянный
Битрейт : 1500 Кбит/сек
Ширина : 720 пикселей
Высота : 576 пикселей
Соотношение сторон : 16:9
Соотношение сторон в оригинале : 16:9
Частота кадров : 25,000 кадров/сек
Стандарт вещания : PAL
Цветовое пространство : YUV
Субдискретизация насыщенности : 4:2:0
Битовая глубина : 8 бит
Тип развёртки : Прогрессивная
Бит/(Пиксели*Кадры) : 0.145
Размер потока : 270 Мбайт (91%)

Аудио
Идентификатор : 1
Формат : MPEG Audio
Версия формата : Version 1
Профиль формата : Layer 3
Режим : Joint stereo
Расширение режима : MS Stereo
Идентификатор кодека : 55
Идентификатор кодека/Подсказка : MP3
Продолжительность : 25 м.
Вид битрейта : Постоянный
Битрейт : 128 Кбит/сек
Каналы : 2 канала
Частота : 44,1 КГц
Метод сжатия : С потерями
Размер потока : 23,0 Мбайт (8%)
Выравнивание : Соединение по промежуткам
Продолжительность промежутка : 26 мс. (0,65 видеокадр)
Библиотека кодирования : LAME3.98









реклама партнёра


Вернуться к началу
 Профиль Отправить личное сообщение  
 
   Похожие торренты   Автор   Торрент   Размер 
В этой теме нет новых непрочитанных сообщений. Создавая Изумрудный город [Фильм о фильме] / Oz Reimagined: The Making of Emerald City (Документальный, 2017) HDTVRip AVC от R.G. Resident

marya111

25 | 4

550.49 МБ

В этой теме нет новых непрочитанных сообщений. Ментовские войны [1-9 сезоны: 1-124 серии из 124 + Спин-оффы + 2 Фильма о фильме] ( Павел Мальков, Егор Абросимов, Сергей Раевский, Денис Скворцов и другие) [Криминал, 2004-2015] DVDRip

Dracon

14 | 23

79.84 ГБ

В этой теме нет новых непрочитанных сообщений. Фильм o жопах 5 / The Booty Movie 5 (2017) WEBRip

salma3

141 | 40

1.29 ГБ

В этой теме нет новых непрочитанных сообщений. "Инсургенты. Донбасс". Фильм Аркадия Мамонтова (Россия) [Документальный, 21/02/2015] WEBRip

Dracon

28 | 3

688.09 МБ

В этой теме нет новых непрочитанных сообщений. Атака Титанов. Фильм первый: Жестокий мир / Shingeki no kyojin: Attack on Titan (Синдзи Хигути ) [фэнтези, боевик, драма, приключения, 2015] WEBRip, dvo

Dracon

2 | 1

1.37 ГБ

В этой теме нет новых непрочитанных сообщений. Недооформлен Как правильно закопать после расстрела ("Партизаны в степях Украины", 1942) (Алексей Меняйлов) [2014, военный, подвиг, драма, WEBRip] Данный торрент является блокированным, причина: недооформленный торрент

vairgin

36 | 33

579.28 МБ

В этой теме нет новых непрочитанных сообщений. По телеку обалденный фильм (2017) CamRip

Dievas

292 | 40

181.59 МБ


Начать новую тему Ответить на тему  [ 1 сообщение ] 




Для Мосгорсуда, Роскомнадзора и рекламодателей:: mosgorsud-torrent[собачка]yandex.ru