Торрент файл
скачать торрент магнет ссылка Добавлен: 18 июн 2014, 21:00
Размер: 134.77 МБ
Сидеров: 0
Личеров: 3
Автор

СообщениеДобавлено: 18 июн 2014, 21:00 

Не в сети
Дата регистрации:
27 апр 2014, 21:05
Спасибо: 10 / 0
Сообщения: 64
Тайна женщины несущей удачу. Анализ фильма "Титаник" Джеймса Кэмерона (Алексей Меняйлов)

Перевод: Не требуется, cубтитры: отсутствуют
Формат: WEBRip, AVI, DivX, MP3
Страна: Россия
Режиссер: Алексей Меняйлов
Жанр: Анализ ключевых эпизодов фильма
Продолжительность: 00:23:25
Год выпуска: 2012

Описание:
Понимание сути вещей сильно меняет жизнь. В знаменитом "Титанике" Джеймса Кэмерона великолепно показано, как знание сути вещей одних делает удачливыми, а других незнание обрекает на пожизненное пребывание в третьем классе. Речь идет об инструменте познания.

Видео: 720x576 (1.25:1), 25 fps, DivX Codec 4.x ~728 kbps avg, 0.07 bit/pixel
Аудио: 44.100 kHz, MPEG Layer 3, 2 ch, ~64.00 kbps avg

Общее
Формат : AVI
Формат/Информация : Audio Video Interleave
Размер файла : 135 Мбайт
Продолжительность : 23 м.
Общий поток : 805 Кбит/сек
Программа кодирования : Lavf52.39.1

Видео
Идентификатор : 0
Формат : MPEG-4 Visual
Профиль формата : Advanced Simple@L1
Параметр BVOP формата : 2
Параметр QPel формата : Нет
Параметр GMC формата : Без точки перехода
Параметр матрицы формата : Default (H.263)
Идентификатор кодека : divx
Идентификатор кодека/Информация : Mainly used by Google
Идентификатор кодека/Подсказка : DivX
Продолжительность : 23 м.
Битрейт : 728 Кбит/сек
Ширина : 720 пикселей
Высота : 576 пикселей
Соотношение сторон : 16:9
Частота кадров : 25,000 кадров/сек
Стандарт вещания : PAL
Цветовое пространство : YUV
Субдискретизация насыщенности : 4:2:0
Битовая глубина : 8 бит
Тип развёртки : Прогрессивная
Метод сжатия : С потерями
Бит/(Пиксели*Кадры) : 0.070
Размер потока : 122 Мбайт (90%)
Библиотека кодирования : Lavc52.37.0

Аудио
Идентификатор : 1
Формат : MPEG Audio
Версия формата : Version 1
Профиль формата : Layer 3
Режим : Joint stereo
Расширение режима : MS Stereo
Идентификатор кодека : 55
Идентификатор кодека/Подсказка : MP3
Продолжительность : 23 м.
Вид битрейта : Постоянный
Битрейт : 64,0 Кбит/сек
Каналы : 2 канала
Частота : 44,1 КГц
Метод сжатия : С потерями
Размер потока : 10,7 Мбайт (8%)
Выравнивание : Соединение по промежуткам
Продолжительность промежутка : 26 мс. (0,65 видеокадр)





реклама партнёра


Вернуться к началу
 Профиль Отправить личное сообщение  
 
   Похожие торренты   Автор   Торрент   Размер 
В этой теме нет новых непрочитанных сообщений. Аватар. Тайна управления молодой Цахик [Анализ ключевых эпизодов фильма, 2012] WEBRip

vairgin

2 | 3

539.63 МБ

В этой теме нет новых непрочитанных сообщений. Как не проморгать человека несущего удачу ("Форрест Гамп") (Алексей Меняйлов) [2012, Анализ ключевых эпизодов фильма, WEBRip]

vairgin

10 | 6

602.79 МБ

В этой теме нет новых непрочитанных сообщений. Ланиста Ботиата. Анализ фильма "Спартак", Стэнли Кубрика [Анализ ключевых эпизодов фильма, 2012] WEBRip

vairgin

1 | 4

2.82 ГБ

В этой теме нет новых непрочитанных сообщений. Что можно узнать о женщине по лицу и одежде (Алексей Меняйлов) [2012, Анализ ключевых эпизодов фильма, WEBRip]

vairgin

44 | 4

274.14 МБ

В этой теме нет новых непрочитанных сообщений. Скотина... Скотина, гад, сука! По фильму "Трюкач". (Меняйлов) [2012, Анализ ключевых эпизодов фильма, WEBRip] фильм о фильме

vairgin

0 | 3

2.05 ГБ

В этой теме нет новых непрочитанных сообщений. Методика допроса женщин. Анализ фильма "Основной инстинкт" [Психологический анализ фильма, 2012] WEBRip

vairgin

3 | 6

434.42 МБ

В этой теме нет новых непрочитанных сообщений. Херхор ("Фараон" Ежи Кавалерович) Алексей Меняйлов [2012, психологический анализ фильма, WEBRip] фильм о фильме

vairgin

7 | 3

1.64 ГБ


Начать новую тему Ответить на тему  [ 1 сообщение ] 




Для Мосгорсуда, Роскомнадзора и рекламодателей:: mosgorsud-torrent[собачка]yandex.ru