Торрент файл
скачать торрент магнет ссылка Добавлен: 04 май 2014, 22:06
Размер: 603.6 МБ
Сидеров: 3
Личеров: 4
Автор

СообщениеДобавлено: 04 май 2014, 22:06 

Не в сети
Дата регистрации:
04 май 2014, 12:15
Спасибо: 3 / 0
Сообщения: 14
Режиссер / Телекомпания: History

Русское название: Древние пришельцы
Оригинальное название: Ancient Aliens
Год выпуска: 2013
Жанр: Документальный, паранормальный, уфология, мистика, альтернативная история, псевдоистория
Выпущено: США, Prometheus Entertainment, A&E Television Networks, LLC., History Channel

Описание:
Возможно ли, что разумные формы жизни посетили Землю тысячи лет назад, принеся с собой технологии кардинально повлиявшие на ход истории и развития человечества? Теория "древних пришельцев", опубликованная в 1968 году в бестселлере Эриха фон Деникена "Колесницы богов", пошатнула представления людей об общеизвестном прогрессе человечества. Древние пещерные рисунки странных существ, остатки взлетно-посадочных полос в Перу, индийские тексты, описывающие "летающие машины богов"... вот лишь некоторые необычные археологические артефакты на которые ссылается Деникен в качестве доказательств того, что "древние астронавты" были хорошо известны нашим предкам.

Режиссёр: Кевин Барнс, Дэвид Сильвер
Актёры: Уильям Джей Бернс, Линда Молтон Хоу, Роберт Клотуорти, Джордж Нури, Джонатан Янг, Луис Навия, Бэрри Доунинг, Эрих фон Дэникен, Майкл Кремо, Дэвид Чайлдресс
В выпуске: 08. Мистические Реликвии / Mysterious Relics

Перевод: Одноголосый, закадровый
Продолжительность: ~ 00:42:10

Видеокодек: XVID
Битрейт видео: ~1800 kb/s
Размер кадра: 720 x 400
Качество видео: HDTVRip
Аудиокодек: AC-3, 2ch.
Битрейт аудио: 192 kb/s
Формат : AVI
Формат/Информация : Audio Video Interleave
Размер файла : 604 Мбайт
Продолжительность : 42 м.
Общий поток : 2001 Кбит/сек
Программа кодирования : VirtualDubMod 1.5.10.3 | www.virtualdub-fr.org || (build 2550/release)
Библиотека кодирования : VirtualDubMod build 2550/release

Видео
Идентификатор : 0
Формат : MPEG-4 Visual
Профиль формата : Advanced Simple@L5
Параметр BVOP формата : 2
Параметр QPel формата : Нет
Параметр GMC формата : Без точки перехода
Параметр матрицы формата : Default (H.263)
Идентификатор кодека : XVID
Идентификатор кодека/Подсказка : XviD
Продолжительность : 42 м.
Битрейт : 1800 Кбит/сек
Ширина : 720 пикселей
Высота : 400 пикселей
Соотношение сторон : 16:9
Частота кадров : 25,000 кадров/сек
Цветовое пространство : YUV
Субдискретизация насыщенности : 4:2:0
Битовая глубина : 8 бит
Тип развёртки : Прогрессивная
Метод сжатия : С потерями
Бит/(Пиксели*Кадры) : 0.250
Размер потока : 543 Мбайт (90%)
Библиотека кодирования : XviD 1.2.1 (UTC 2008-12-04)

Аудио
Идентификатор : 1
Формат : AC-3
Формат/Информация : Audio Coding 3
Расширение режима : CM (complete main)
Идентификатор кодека : 2000
Продолжительность : 42 м.
Вид битрейта : Постоянный
Битрейт : 192 Кбит/сек
Каналы : 2 канала
Расположение каналов : Front: L R
Частота : 48,0 КГц
Битовая глубина : 16 бит
Метод сжатия : С потерями
Размер потока : 57,9 Мбайт (10%)
Выравнивание : Разделение по промежуткам
Продолжительность промежутка : 40 мс. (1,00 видеокадр)
Время предзагрузки промежутка : 500 мс.



Последний раз редактировалось rustorkan 06 май 2014, 14:36, всего редактировалось 3 раз(а).


реклама партнёра


Вернуться к началу
 Профиль Отправить личное сообщение  
 
   Похожие торренты   Автор   Торрент   Размер 
В этой теме нет новых непрочитанных сообщений. Современные чудеса. Арсенал Джеймса Бонда [01-02] (History Channel) [2002, документальный, научно-познавательный, технологии, SATRip] AVO

salma3

0 | 0

906.53 МБ

В этой теме нет новых непрочитанных сообщений. Охотники за складами / Discovery Channel: Storage Hunters [01-42] (Discovery Channel) [2011-2013, Документальный, познавательный, SATRip] dvo

salma3

0 | 0

10.27 ГБ

В этой теме нет новых непрочитанных сообщений. Древние греки / The Greeks [01-03 из 03] [Документальный, история, 2016] HDTVRip, Dvo

salma3

0 | 0

1.61 ГБ

В этой теме нет новых непрочитанных сообщений. Вот это странно! Пришельцы среди нас / Discovery. Weird or What? Aliens Walk Among Us [документальный, 2012] HDTVRip, Dvo

salma3

14 | 2

697.89 МБ

В этой теме нет новых непрочитанных сообщений. Discovery. Взрывая историю / Blowing up History [01] [Документальный, наука, история, археология, 2016] HDTVRip, Avo

salma3

58 | 21

1.07 ГБ

В этой теме нет новых непрочитанных сообщений. Discovery: Сканируя небо. Телескоп Discovery Channel / Discovery: Scanning the skies. The discovery channel telescope (Тони Бекон, Натан Хэндри) [2012, документальный, SATRip] AVO

salma3

0 | 1

379.98 МБ

В этой теме нет новых непрочитанных сообщений. Секреты истории: Высадка на Луне / The Secret History: Moon Landings. Hidden Horror (Николь Теш) [2007, документальный, HDTVRip]VO

salma3

0 | 2

673.14 МБ


СообщениеДобавлено: 05 май 2014, 10:05 

Не в сети
Зам. Админа
Аватара пользователя
Дата регистрации:
02 дек 2010, 12:39
Спасибо: 12620 / 214
Сообщения: 28049
меняем название- название [Сезон 6. Серия 8] [жанр, год] качество, перевод


Вернуться к началу
 Профиль  
 

СообщениеДобавлено: 06 май 2014, 11:22 

Не в сети
Зам. Админа
Аватара пользователя
Дата регистрации:
02 дек 2010, 12:39
Спасибо: 12620 / 214
Сообщения: 28049
Перевод в название не Одноголосый, закадровый,а Avo


Вернуться к началу
 Профиль  
 
Начать новую тему Ответить на тему  [ Сообщений: 3 ] 




Для Мосгорсуда, Роскомнадзора и рекламодателей:: mosgorsud-torrent[собачка]yandex.ru