Торрент файл
скачать торрент магнет ссылка Добавлен: 29 янв 2017, 22:43
Размер: 128.58 МБ
Сидеров: 17
Личеров: 7
Автор

СообщениеДобавлено: 29 янв 2017, 22:43 

Не в сети
Дата регистрации:
27 апр 2014, 21:05
Спасибо: 11 / 0
Сообщения: 65
Секреты успеха от лучших советских актеров

Перевод: Не требуется, cубтитры: отсутствуют
Формат: WEBRip, AVI, DivX, MP3
Страна: Россия
Режиссер: Алексей Меняйлов
Жанр: Война, психология, самиздат
Продолжительность: 00:29:02
Год выпуска: 2012

Описание: Шедевр «В бой идут одни «старики»» — уникальное явление в мировом кинематографе. Такого нигде больше в мире не найти. В нём показан центральный, ключевой обряд исконной веры. Потрясающе, если понимать что к чему в этом шедевре кинематографа.

Видео: 640x480 (1.33:1), 25 fps, DivX Codec 4.x ~417 kbps avg, 0.05 bit/pixel
Аудио: 48 kHz, MPEG Layer 3, 2 ch, ~192.00 kbps avg


Формат : AVI
Формат/Информация : Audio Video Interleave
Размер файла : 129 Мбайт
Продолжительность : 29 м. 2 с.
Общий поток : 619 Кбит/сек

Видео
Идентификатор : 0
Формат : MPEG-4 Visual
Параметр BVOP формата : 1
Параметр QPel формата : Нет
Параметр GMC формата : Без точки перехода
Параметр матрицы формата : Default (H.263)
Режим смешивания : Сжатый битовый поток
Идентификатор кодека : DX50
Идентификатор кодека/Подсказка : DivX 5
Продолжительность : 29 м. 2 с.
Битрейт : 417 Кбит/сек
Номинальный битрейт : 1000 Кбит/сек
Ширина : 640 пикселей
Высота : 480 пикселей
Соотношение сторон : 4:3
Частота кадров : 25,000 кадров/сек
Цветовое пространство : YUV
Субдискретизация насыщенности : 4:2:0
Битовая глубина : 8 бит
Тип развёртки : Прогрессивная
Метод сжатия : С потерями
Бит/(Пиксели*Кадры) : 0.054
Размер потока : 86,7 Мбайт (67%)
Заголовок : Video
Библиотека кодирования : DivX 2682

Аудио
Идентификатор : 1
Формат : MPEG Audio
Версия формата : Version 1
Профиль формата : Layer 3
Режим : Joint stereo
Расширение режима : MS Stereo
Идентификатор кодека : 55
Идентификатор кодека/Подсказка : MP3
Продолжительность : 29 м. 2 с.
Вид битрейта : Постоянный
Битрейт : 192 Кбит/сек
Каналы : 2 канала
Частота : 48,0 КГц
Метод сжатия : С потерями
Размер потока : 39,9 Мбайт (31%)
Выравнивание : Разделение по промежуткам
Продолжительность промежутка : 40 мс. (1,00 видеокадр)
Время предзагрузки промежутка : 500 мс.
Заголовок : Audio - en-US01









Вернуться к началу
 Профиль Отправить личное сообщение  
 
   Похожие торренты   Автор   Торрент   Размер 
В этой теме нет новых непрочитанных сообщений. Секрет успеха от древних самураев (Алексей Меняйлов) [2015, самиздат, психология, приключения, WEBRip]

vairgin

21 | 2

582.44 МБ

В этой теме нет новых непрочитанных сообщений. Как вернуть возлюбленного (Алексей Меняйлов) [2016, История, психология, самиздат, WEBRip]

vairgin

6 | 4

70.48 МБ

В этой теме нет новых непрочитанных сообщений. Загадка “Бриллиантовой руки” (Алексей Меняйлов) [2016, Комедия, психология, самиздат, WEBRip]

vairgin

19 | 10

68.87 МБ

В этой теме нет новых непрочитанных сообщений. Второй признак суженой (Алексей Меняйлов) [2015, самиздат, психология, приключения, WEBRip]

vairgin

26 | 2

185.32 МБ

В этой теме нет новых непрочитанных сообщений. Главная обязанность дона Корлеоне (Алексей Меняйлов) [2017, психология, самиздат, WEBRip]

vairgin

9 | 4

248.34 МБ

В этой теме нет новых непрочитанных сообщений. Как имитируют изюминку самые эротичные женщины (Алексей Меняйлов) [2016, Психология, комедия, самиздат, WEBRip]

vairgin

22 | 3

113.99 МБ

В этой теме нет новых непрочитанных сообщений. Как узнать тайную мечту своей девушки? (Алексей Меняйлов) [2016, Комедия, психология, самиздат, WEBRip]

vairgin

4 | 2

131.76 МБ


Начать новую тему Ответить на тему  [ 1 сообщение ] 




Для Мосгорсуда, Роскомнадзора и рекламодателей:: mosgorsud-torrent[собачка]yandex.ru
cron