Торрент файл
скачать торрент магнет ссылка Добавлен: 30 ноя 2016, 13:05
Размер: 1.35 ГБ
Сидеров: 159
Личеров: 18
Статус: (salma3)
Автор

СообщениеДобавлено: 30 ноя 2016, 13:05 

Не в сети
Супермодератор
Аватара пользователя
Дата регистрации:
15 фев 2012, 16:44
Возраст: 28
Спасибо: 6468 / 2129
Сообщения: 40548
Страна: США
Производство: Appian Way, Insurgent Docs
Телеканал: National Geographic
Год выпуска: 2016
Жанр: документальный, новости
Продолжительность: 01:35:34
Режиссер: Фишер Стивенс

В ролях: Илон Маск, Пан Ги Мун, Леонардо ДиКаприо, Джон Керри, Скотт Эндрю Робертсон

Описание: Леонардо ДиКаприо, новый посол Мира ООН по проблемам климата, берётся за главную роль в своей жизни. Путешествуя от пустошей Гренландии к лесам Суматры и залам Ватикана, ДиКаприо изучает влияние климатических изменений на нашу планету. Он пользуется своими привилегиями, чтобы побеседовать с активистами, учёными и сильными мира сего, включая Барака Обаму, Илона Маска и Папу Франциска. Изучая проблему со всех сторон, Лео ищет ответ на вопрос: что мы можем сделать, пока не стало слишком поздно..?



Перевод: Профессиональный (одноголосый, закадровый) | Олег Федоров
Субтитры: нет

Качество: HDTVRip
Формат: AVI
Видео кодек: XviD
Аудио кодек: АС3
Видео: 704x400 (16:9), 25.000 fps, XviD ~1 816 kbps avg
Аудио: 48.0 kHz, AC3 Dolby Digital, 2/0 (L,R) ch, ~192 kbps
Дата премьеры (мир): 9 сентября 2016


General
Полное имя : Before.the.Flood.2016.HDTVRip.Rus.avi
Формат : AVI
Формат/Информация : Audio Video Interleave
Размер файла : 1,35 Гбайт
Продолжительность : 1 ч. 35 м.
Общий поток : 2017 Кбит/сек
Название фильма : Спасти планету / Before the Flood
Программа кодирования : VirtualDubMod 1.5.10.3 | (build 2550/release)
Видео
Идентификатор : 0
Формат : MPEG-4 Visual
Профиль формата : Advanced Simple@L5
Параметр BVOP формата : 1
Параметр QPel формата : Нет
Параметр GMC формата : Без точки перехода
Параметр матрицы формата : Выборочная
Идентификатор кодека : XVID
Идентификатор кодека/Подсказка : XviD
Продолжительность : 1 ч. 35 м.
Битрейт : 1816 Кбит/сек
Ширина : 704 пикселя
Высота : 400 пикселей
Соотношение сторон : 16:9
Частота кадров : 25,000 кадров/сек
Цветовое пространство : YUV
Субдискретизация насыщенности : 4:2:0
Битовая глубина : 8 бит
Тип развёртки : Прогрессивная
Метод сжатия : С потерями
Бит/(Пиксели*Кадры) : 0.258
Размер потока : 1,21 Гбайт (90%)
Библиотека кодирования : XviD 1.2.1 (UTC 2008-12-04)
Аудио
Идентификатор : 1
Формат : AC-3
Формат/Информация : Audio Coding 3
Расширение режима : CM (complete main)
Параметр Endianness формата : Big
Идентификатор кодека : 2000
Продолжительность : 1 ч. 35 м.
Вид битрейта : Постоянный
Битрейт : 192 Кбит/сек
Каналы : 2 канала
Расположение каналов : Front: L R
Частота : 48,0 КГц
Битовая глубина : 16 бит
Метод сжатия : С потерями
Размер потока : 131 Мбайт (10%)
Выравнивание : Разделение по промежуткам
Продолжительность промежутка : 40 мс. (1,00 видеокадр)
Время предзагрузки промежутка : 500 мс.


_________________
Проголосуй за трекер Открытый торрент трекер - RUS-MEDIA.ORG

Проголосуй Открытый торрент трекер - RUS-MEDIA.ORG



реклама партнёра


Вернуться к началу
 Профиль Отправить личное сообщение  
 
   Похожие торренты   Автор   Торрент   Размер 
В этой теме нет новых непрочитанных сообщений. Дмитрий Донской. Спасти мир (Сергей Дубинкин) [Документальный, познавательный, исследование, реконструкция, 2015] HDTVRip

Dracon

167 | 1

556.64 МБ

В этой теме нет новых непрочитанных сообщений. Flood The Sun - Flood The Sun [EP] [Декабрь 2010, Metalcore, Experimental, MP3]

PriZraK

0 | 1

47.78 МБ

В этой теме нет новых непрочитанных сообщений. Flood of Souls - Flood of Souls [2014, Heavy Metal, MP3]

PriZraK

0 | 1

113.06 МБ

В этой теме нет новых непрочитанных сообщений. Mr. Flood's Party - Mr. Flood's Party [1969, Psychedelic Rock, MP3]

PriZraK

0 | 1

89.27 МБ

В этой теме нет новых непрочитанных сообщений. Древние греки / The Greeks [01-03 из 03] [Документальный, история, 2016] HDTVRip, Dvo

salma3

0 | 0

1.61 ГБ

В этой теме нет новых непрочитанных сообщений. Болезни высших достижен (Документальный, расследование, 2016) / РУ / HDTVRip

marya111

181 | 4

724.61 МБ

В этой теме нет новых непрочитанных сообщений. Discovery. Спасатели-тяжеловесы / Heavy Rescue [01] [Документальный, 2016] HDTVRip, Avo

salma3

0 | 1

1.6 ГБ


Начать новую тему Ответить на тему  [ 1 сообщение ] 




Для Мосгорсуда, Роскомнадзора и рекламодателей:: mosgorsud-torrent[собачка]yandex.ru