Торрент файл
скачать торрент магнет ссылка Добавлен: 16 ноя 2016, 22:24
Размер: 68.87 МБ
Сидеров: 19
Личеров: 10
Автор

СообщениеДобавлено: 16 ноя 2016, 22:24 

Не в сети
Дата регистрации:
27 апр 2014, 21:05
Спасибо: 8 / 0
Сообщения: 63
Загадка “Бриллиантовой руки”

Перевод: Не требуется, cубтитры: отсутствуют
Формат: WEBRip, AVI, DivX, MP3
Страна: Россия
Режиссер: Алексей Меняйлов
Жанр: Комедия, психология, самиздат
Продолжительность: 00:09:26
Год выпуска: 2016

Описание: В фильме Леонида Гайдая «Бриллиантовая рука» есть загадка. Вопрос: кто кого умнее – Кеша умнее Семён Семёновича или, наоборот, Семён Семёнович умнее Кеши? Семёна Семёновича не смогла одолеть целая банда. Значит, Семён Семёнович умнее? Загадка, без разгадки которой адекватное жизнеописание не составить.

Видео: 720x406 (1.77:1), 30 fps, DivX Codec 4.x ~816 kbps avg, 0.09 bit/pixel
Аудио: 48 kHz, MPEG Layer 3, 2 ch, ~192.00 kbps avg


Общее
Формат : AVI
Формат/Информация : Audio Video Interleave
Размер файла : 68,9 Мбайт
Продолжительность : 9 м. 26 с.
Общий поток : 1020 Кбит/сек

Видео
Идентификатор : 0
Формат : MPEG-4 Visual
Параметр BVOP формата : 1
Параметр QPel формата : Нет
Параметр GMC формата : Без точки перехода
Параметр матрицы формата : Default (H.263)
Режим смешивания : Сжатый битовый поток
Идентификатор кодека : DX50
Идентификатор кодека/Подсказка : DivX 5
Продолжительность : 9 м. 26 с.
Битрейт : 816 Кбит/сек
Номинальный битрейт : 1500 Кбит/сек
Ширина : 720 пикселей
Высота : 406 пикселей
Соотношение сторон : 16:9
Частота кадров : 30,000 кадров/сек
Цветовое пространство : YUV
Субдискретизация насыщенности : 4:2:0
Битовая глубина : 8 бит
Тип развёртки : Прогрессивная
Метод сжатия : С потерями
Бит/(Пиксели*Кадры) : 0.093
Размер потока : 55,1 Мбайт (80%)
Заголовок : Video
Библиотека кодирования : DivX 2682

Аудио
Идентификатор : 1
Формат : MPEG Audio
Версия формата : Version 1
Профиль формата : Layer 3
Режим : Joint stereo
Расширение режима : MS Stereo
Идентификатор кодека : 55
Идентификатор кодека/Подсказка : MP3
Продолжительность : 9 м. 26 с.
Вид битрейта : Постоянный
Битрейт : 192 Кбит/сек
Каналы : 2 канала
Частота : 48,0 КГц
Метод сжатия : С потерями
Размер потока : 13,0 Мбайт (19%)
Выравнивание : Разделение по промежуткам
Продолжительность промежутка : 33 мс. (1,00 видеокадр)
Время предзагрузки промежутка : 500 мс.
Заголовок : Audio - en-US01










реклама партнёра


Вернуться к началу
 Профиль Отправить личное сообщение  
 
   Похожие торренты   Автор   Торрент   Размер 
В этой теме нет новых непрочитанных сообщений. Как узнать тайную мечту своей девушки? (Алексей Меняйлов) [2016, Комедия, психология, самиздат, WEBRip]

vairgin

4 | 2

131.76 МБ

В этой теме нет новых непрочитанных сообщений. Как имитируют изюминку самые эротичные женщины (Алексей Меняйлов) [2016, Психология, комедия, самиздат, WEBRip]

vairgin

22 | 3

113.99 МБ

В этой теме нет новых непрочитанных сообщений. Как снять мужика в метро вплоть до брака? (Алексей Меняйлов) [2016, Комедия, психология, самиздат, WEBRip]

vairgin

24 | 11

121.67 МБ

В этой теме нет новых непрочитанных сообщений. Как вернуть возлюбленного (Алексей Меняйлов) [2016, История, психология, самиздат, WEBRip]

vairgin

6 | 4

70.48 МБ

В этой теме нет новых непрочитанных сообщений. Второй признак суженой (Алексей Меняйлов) [2015, самиздат, психология, приключения, WEBRip]

vairgin

26 | 2

185.32 МБ

В этой теме нет новых непрочитанных сообщений. Секрет успеха от древних самураев (Алексей Меняйлов) [2015, самиздат, психология, приключения, WEBRip]

vairgin

21 | 2

582.44 МБ

В этой теме нет новых непрочитанных сообщений. Секреты успеха от лучших советских актеров (Алексей Меняйлов) [2012, Война, психология, самиздат, WEBRip]

vairgin

16 | 6

128.58 МБ


Начать новую тему Ответить на тему  [ 1 сообщение ] 




Для Мосгорсуда, Роскомнадзора и рекламодателей:: mosgorsud-torrent[собачка]yandex.ru