Торрент файл
скачать торрент магнет ссылка Добавлен: 19 окт 2016, 22:16
Размер: 121.67 МБ
Сидеров: 24
Личеров: 12
Автор

СообщениеДобавлено: 19 окт 2016, 22:16 

Не в сети
Дата регистрации:
27 апр 2014, 21:05
Спасибо: 10 / 0
Сообщения: 64
Как снять мужика в метро вплоть до брака?

Перевод: Не требуется, cубтитры: отсутствуют
Формат: WEBRip, AVI, H.264, MP3
Страна: Россия
Режиссер: Алексей Меняйлов
Жанр: Комедия, психология, самиздат
Продолжительность: 00:09:46
Год выпуска: 2016

Описание: Ролик о том как некоторые девушки, а может быть и все на живца снимают мужиков, вплоть до брака. И как не оказаться в роли наживки, ну и конечно в роли того, кого пытаются снять путем жесткого обмана.

Видео: 720x406 (1.77:1), 120 fps, Intel ITU H.264 ~1542 kbps avg, 0.04 bit/pixel
Аудио: 48 kHz, MPEG Layer 3, 2 ch, ~256.00 kbps avg


Общее
Формат : AVI
Формат/Информация : Audio Video Interleave
Размер файла : 122 Мбайт
Продолжительность : 9 м. 46 с.
Общий поток : 1739 Кбит/сек
Программа кодирования : Lavf57.40.101

Видео
Идентификатор : 1
Формат : AVC
Формат/Информация : Advanced Video Codec
Профиль формата : Main@L3
Параметр CABAC формата : Да
Параметр ReFrames формата : 2 кадра
Параметр GOP формата : M=1, N=2
Идентификатор кодека : H264
Продолжительность : 9 м. 46 с.
Битрейт : 1452 Кбит/сек
Ширина : 720 пикселей
Высота : 406 пикселей
Соотношение сторон : 16:9
Режим частоты кадров : Переменный / VFR
Частота кадров : 120,000 (24/30) кадров/сек
Минимальная частота кадров : 24,000 кадра/сек
Максимальная частота кадров : 30,000 кадров/сек
Цветовое пространство : YUV
Субдискретизация насыщенности : 4:2:0
Битовая глубина : 8 бит
Тип развёртки : Прогрессивная
Бит/(Пиксели*Кадры) : 0.041
Размер потока : 102 Мбайт (83%)

Аудио
Идентификатор : 0
Формат : MPEG Audio
Версия формата : Version 1
Профиль формата : Layer 3
Режим : Joint stereo
Расширение режима : MS Stereo
Идентификатор кодека : 55
Идентификатор кодека/Подсказка : MP3
Продолжительность : 6 м. 31 с.
Продолжительность оригинала : 9 м. 46 с.
Вид битрейта : Постоянный
Битрейт : 256 Кбит/сек
Каналы : 2 канала
Частота : 48,0 КГц
Метод сжатия : С потерями
Размер потока : 17,9 Мбайт (15%)
Выравнивание : Соединение по промежуткам
Продолжительность промежутка : 8 мс. (1,00 видеокадр)
Библиотека кодирования : LAME3.99.5










реклама партнёра


Вернуться к началу
 Профиль Отправить личное сообщение  
 
   Похожие торренты   Автор   Торрент   Размер 
В этой теме нет новых непрочитанных сообщений. Загадка “Бриллиантовой руки” (Алексей Меняйлов) [2016, Комедия, психология, самиздат, WEBRip]

vairgin

19 | 10

68.87 МБ

В этой теме нет новых непрочитанных сообщений. Как узнать тайную мечту своей девушки? (Алексей Меняйлов) [2016, Комедия, психология, самиздат, WEBRip]

vairgin

4 | 2

131.76 МБ

В этой теме нет новых непрочитанных сообщений. Как имитируют изюминку самые эротичные женщины (Алексей Меняйлов) [2016, Психология, комедия, самиздат, WEBRip]

vairgin

22 | 3

113.99 МБ

В этой теме нет новых непрочитанных сообщений. Соблазнение сопротивляющегося (Древний культ Двуликого Януса) (Алексей Меняйлов) [2016, Комедия, психология, самиздат, WEBRip]

vairgin

36 | 15

100.83 МБ

В этой теме нет новых непрочитанных сообщений. Как вернуть возлюбленного (Алексей Меняйлов) [2016, История, психология, самиздат, WEBRip]

vairgin

6 | 4

70.48 МБ

В этой теме нет новых непрочитанных сообщений. Второй признак суженой (Алексей Меняйлов) [2015, самиздат, психология, приключения, WEBRip]

vairgin

26 | 2

185.32 МБ

В этой теме нет новых непрочитанных сообщений. Секрет успеха от древних самураев (Алексей Меняйлов) [2015, самиздат, психология, приключения, WEBRip]

vairgin

21 | 2

582.44 МБ


Начать новую тему Ответить на тему  [ 1 сообщение ] 




Для Мосгорсуда, Роскомнадзора и рекламодателей:: mosgorsud-torrent[собачка]yandex.ru