Торрент файл
скачать торрент магнет ссылка Добавлен: 23 мар 2016, 22:40
Размер: 113.99 МБ
Сидеров: 22
Личеров: 3
Автор

СообщениеДобавлено: 23 мар 2016, 22:40 

Не в сети
Дата регистрации:
27 апр 2014, 21:05
Спасибо: 10 / 0
Сообщения: 64
Как имитируют изюминку самые эротичные женщины

Перевод: Не требуется, cубтитры: отсутствуют
Формат: WEBRip, AVI, DivX, MP3
Страна: Россия
Режиссер: Алексей Меняйлов
Жанр: Психология, комедия, самиздат
Продолжительность: 00:14:36
Год выпуска: 2016

Описание: Любой человек замечает только то, что ищет. Чтобы понять, чего на самом деле ищет мужчина, надо рассмотреть опыт ампутанток. Вот жила-была здоровая женщина, руки-ноги были при ней – но никого она не интересовала. Куковала. Замуж выйти не могла. Но вот случилось несчастье, попала в аварию, в результате которой у неё отняли ногу. Всё, теперь она ампутантка.Казалось бы, она как товар в цене упала. Однако, по жизни всё совсем не так. Вот и вопрос, что мужичин на самом деле интересует при выборе своей пассии?

Видео: 720x406 (1.77:1), 30 fps, DivX Codec 5.x or 6.x ~887 kbps avg, 0.10 bit/pixel
Аудио: 48 kHz, MPEG Layer 3, 2 ch, ~192.00 kbps avg

Доп. информация: Партизанская правда партизан


Общее
Формат : AVI
Формат/Информация : Audio Video Interleave
Размер файла : 114 Мбайт
Продолжительность : 14 м.
Общий поток : 1091 Кбит/сек

Видео
Идентификатор : 0
Формат : MPEG-4 Visual
Параметр BVOP формата : 1
Параметр QPel формата : Нет
Параметр GMC формата : Без точки перехода
Параметр матрицы формата : Default (H.263)
Режим смешивания : Сжатый битовый поток
Идентификатор кодека : DX50
Идентификатор кодека/Подсказка : DivX 5
Продолжительность : 14 м.
Битрейт : 887 Кбит/сек
Ширина : 720 пикселей
Высота : 406 пикселей
Соотношение сторон : 16:9
Частота кадров : 30,000 кадров/сек
Цветовое пространство : YUV
Субдискретизация насыщенности : 4:2:0
Битовая глубина : 8 бит
Тип развёртки : Прогрессивная
Метод сжатия : С потерями
Бит/(Пиксели*Кадры) : 0.101
Размер потока : 92,7 Мбайт (81%)
Заголовок : Video
Библиотека кодирования : DivX 2682

Аудио
Идентификатор : 1
Формат : MPEG Audio
Версия формата : Version 1
Профиль формата : Layer 3
Режим : Joint stereo
Расширение режима : MS Stereo
Идентификатор кодека : 55
Идентификатор кодека/Подсказка : MP3
Продолжительность : 14 м.
Вид битрейта : Постоянный
Битрейт : 192 Кбит/сек
Каналы : 2 канала
Частота : 48,0 КГц
Метод сжатия : С потерями
Размер потока : 20,1 Мбайт (18%)
Выравнивание : Разделение по промежуткам
Продолжительность промежутка : 33 мс. (1,00 видеокадр)
Время предзагрузки промежутка : 500 мс.
Заголовок : Audio - en-US01










реклама партнёра


Вернуться к началу
 Профиль Отправить личное сообщение  
 
   Похожие торренты   Автор   Торрент   Размер 
В этой теме нет новых непрочитанных сообщений. Загадка “Бриллиантовой руки” (Алексей Меняйлов) [2016, Комедия, психология, самиздат, WEBRip]

vairgin

19 | 10

68.87 МБ

В этой теме нет новых непрочитанных сообщений. Как снять мужика в метро вплоть до брака? (Алексей Меняйлов) [2016, Комедия, психология, самиздат, WEBRip]

vairgin

24 | 11

121.67 МБ

В этой теме нет новых непрочитанных сообщений. Как узнать тайную мечту своей девушки? (Алексей Меняйлов) [2016, Комедия, психология, самиздат, WEBRip]

vairgin

4 | 2

131.76 МБ

В этой теме нет новых непрочитанных сообщений. Соблазнение сопротивляющегося (Древний культ Двуликого Януса) (Алексей Меняйлов) [2016, Комедия, психология, самиздат, WEBRip]

vairgin

40 | 15

100.83 МБ

В этой теме нет новых непрочитанных сообщений. Как вернуть возлюбленного (Алексей Меняйлов) [2016, История, психология, самиздат, WEBRip]

vairgin

6 | 4

70.48 МБ

В этой теме нет новых непрочитанных сообщений. Второй признак суженой (Алексей Меняйлов) [2015, самиздат, психология, приключения, WEBRip]

vairgin

26 | 2

185.32 МБ

В этой теме нет новых непрочитанных сообщений. Секрет успеха от древних самураев (Алексей Меняйлов) [2015, самиздат, психология, приключения, WEBRip]

vairgin

21 | 2

582.44 МБ


Начать новую тему Ответить на тему  [ 1 сообщение ] 




Для Мосгорсуда, Роскомнадзора и рекламодателей:: mosgorsud-torrent[собачка]yandex.ru