Торрент файл
скачать торрент магнет ссылка Добавлен: 11 ноя 2015, 22:11
Размер: 232.9 МБ
Сидеров: 47
Личеров: 8
Автор

СообщениеДобавлено: 11 ноя 2015, 22:11 

Не в сети
Дата регистрации:
27 апр 2014, 21:05
Спасибо: 10 / 0
Сообщения: 64
Любовные повадки женщин

Перевод: Не требуется, cубтитры: отсутствуют
Формат: WEBRip, AVI, DivX, MP3
Страна: Россия
Режиссер: Алексей Меняйлов
Жанр: мелодрама, детектив, приключения
Продолжительность: 00:19:12
Год выпуска: 2013

Описание: Возможно это первый опыт изучения забавных повадок девушек с использованием метода дедукции. Результат получился, что и говорить, неожиданный. Зачем, вы думаете, она роняет платочек?

Видео: 720x406 (1.77:1), 30 fps, DivX Codec 5.x or 6.x ~1492 kbps avg, 0.17 bit/pixel
Аудио: 48 kHz, MPEG Layer 3, 2 ch, ~192.00 kbps avg

Доп. информация: Производство: "Партизанская правда партизан"


Общее
Формат : AVI
Формат/Информация : Audio Video Interleave
Размер файла : 233 Мбайт
Продолжительность : 19 м.
Общий поток : 1696 Кбит/сек

Видео
Идентификатор : 0
Формат : MPEG-4 Visual
Параметр BVOP формата : 1
Параметр QPel формата : Нет
Параметр GMC формата : Без точки перехода
Параметр матрицы формата : Default (H.263)
Режим смешивания : Сжатый битовый поток
Идентификатор кодека : DX50
Идентификатор кодека/Подсказка : DivX 5
Продолжительность : 19 м.
Битрейт : 1492 Кбит/сек
Ширина : 720 пикселей
Высота : 406 пикселей
Соотношение сторон : 16:9
Частота кадров : 30,000 кадров/сек
Цветовое пространство : YUV
Субдискретизация насыщенности : 4:2:0
Битовая глубина : 8 бит
Тип развёртки : Прогрессивная
Метод сжатия : С потерями
Бит/(Пиксели*Кадры) : 0.170
Размер потока : 205 Мбайт (88%)
Заголовок : Video
Библиотека кодирования : DivX 2682

Аудио
Идентификатор : 1
Формат : MPEG Audio
Версия формата : Version 1
Профиль формата : Layer 3
Режим : Joint stereo
Расширение режима : MS Stereo
Идентификатор кодека : 55
Идентификатор кодека/Подсказка : MP3
Продолжительность : 19 м.
Вид битрейта : Постоянный
Битрейт : 192 Кбит/сек
Каналы : 2 канала
Частота : 48,0 КГц
Метод сжатия : С потерями
Размер потока : 26,4 Мбайт (11%)
Выравнивание : Разделение по промежуткам
Продолжительность промежутка : 33 мс. (1,00 видеокадр)
Время предзагрузки промежутка : 500 мс.
Заголовок : Audio - en-US01







реклама партнёра


Вернуться к началу
 Профиль Отправить личное сообщение  
 
   Похожие торренты   Автор   Торрент   Размер 
В этой теме нет новых непрочитанных сообщений. Забавные повадки девушек ("Последний из Могикан") (Алексей Меняйлов) [2013, мелодрама, детектив, приключения, WEBRip]

vairgin

22 | 8

232.89 МБ

В этой теме нет новых непрочитанных сообщений. Особенности поведения женщин-мигранток (Алексей Меняйлов) [2014, комедия, военный, WEBRip]

vairgin

17 | 2

119.72 МБ

В этой теме нет новых непрочитанных сообщений. Сталин: тип женщин, формирующих великих правителей (Алексей Меняйлов) [2015, исторический, комедия, WEBRip]

vairgin

1 | 10

699.55 МБ

В этой теме нет новых непрочитанных сообщений. Шамано-жреческий аспект "Дома летающих кинжалов" (Алексей Меняйлов) [2015, Боевик, фэнтези, мелодрама, драма, приключения, WEBRip]

vairgin

7 | 4

284.07 МБ

В этой теме нет новых непрочитанных сообщений. Второй признак суженой (Алексей Меняйлов) [2015, самиздат, психология, приключения, WEBRip]

vairgin

26 | 2

185.32 МБ

В этой теме нет новых непрочитанных сообщений. Секрет успеха от древних самураев (Алексей Меняйлов) [2015, самиздат, психология, приключения, WEBRip]

vairgin

21 | 2

582.44 МБ

В этой теме нет новых непрочитанных сообщений. Почему немцы не переименовали Сталино в Донецк? (Алексей Меняйлов) [2013, Война, история, самиздат, WEBRip]

vairgin

51 | 15

45.58 МБ


Начать новую тему Ответить на тему  [ 1 сообщение ] 




Для Мосгорсуда, Роскомнадзора и рекламодателей:: mosgorsud-torrent[собачка]yandex.ru