Торрент файл
скачать торрент магнет ссылка Добавлен: 28 окт 2015, 22:35
Размер: 274.14 МБ
Сидеров: 44
Личеров: 5
Автор

СообщениеДобавлено: 28 окт 2015, 22:35 

Не в сети
Дата регистрации:
27 апр 2014, 21:05
Спасибо: 11 / 0
Сообщения: 65
Что можно узнать о женщине по лицу и одежде


Перевод: Не требуется, cубтитры: отсутствуют
Формат: WEBRip, AVI, DivX, MP3
Страна: Россия
Режиссер: Алексей Меняйлов
Жанр: Анализ ключевых эпизодов фильма
Продолжительность: 00:23:40
Год выпуска: 2012

Описание: Как всегда неожиданный взгляд на важную грань жизни. Видеоряд взят из психологического шедевра китайского кинематографа "Император и убийца" и французского фильма "Дневная красавица" Луиса Бунуэля, Франция.

Видео: 720x540 (1.33:1), 25 fps, DivX Codec 5.x or 6.x ~1417 kbps avg, 0.14 bit/pixel
Аудио: 48 kHz, MPEG Layer 3, 2 ch, ~192.00 kbps avg


Общее
Формат : AVI
Формат/Информация : Audio Video Interleave
Размер файла : 274 Мбайт
Продолжительность : 23 м.
Общий поток : 1619 Кбит/сек

Видео
Идентификатор : 0
Формат : MPEG-4 Visual
Параметр BVOP формата : 1
Параметр QPel формата : Нет
Параметр GMC формата : Без точки перехода
Параметр матрицы формата : Default (H.263)
Режим смешивания : Сжатый битовый поток
Идентификатор кодека : DX50
Идентификатор кодека/Подсказка : DivX 5
Продолжительность : 23 м.
Битрейт : 1418 Кбит/сек
Ширина : 720 пикселей
Высота : 540 пикселей
Соотношение сторон : 4:3
Частота кадров : 25,000 кадров/сек
Цветовое пространство : YUV
Субдискретизация насыщенности : 4:2:0
Битовая глубина : 8 бит
Тип развёртки : Прогрессивная
Метод сжатия : С потерями
Бит/(Пиксели*Кадры) : 0.146
Размер потока : 240 Мбайт (88%)
Заголовок : Video
Библиотека кодирования : DivX 2682

Аудио
Идентификатор : 1
Формат : MPEG Audio
Версия формата : Version 1
Профиль формата : Layer 3
Режим : Joint stereo
Расширение режима : MS Stereo
Идентификатор кодека : 55
Идентификатор кодека/Подсказка : MP3
Продолжительность : 23 м.
Вид битрейта : Постоянный
Битрейт : 192 Кбит/сек
Каналы : 2 канала
Частота : 48,0 КГц
Метод сжатия : С потерями
Размер потока : 32,5 Мбайт (12%)
Выравнивание : Разделение по промежуткам
Продолжительность промежутка : 40 мс. (1,00 видеокадр)
Время предзагрузки промежутка : 500 мс.
Заголовок : Audio - en-US01






Вернуться к началу
 Профиль Отправить личное сообщение  
 
   Похожие торренты   Автор   Торрент   Размер 
В этой теме нет новых непрочитанных сообщений. Как узнать тайную мечту своей девушки? (Алексей Меняйлов) [2016, Комедия, психология, самиздат, WEBRip]

vairgin

4 | 2

131.76 МБ

В этой теме нет новых непрочитанных сообщений. Сталин и Зоя: трудное решение (Алексей Меняйлов) [2012, документальный, WEBRip]

salma3

0 | 1

462.35 МБ

В этой теме нет новых непрочитанных сообщений. Секреты успеха от лучших советских актеров (Алексей Меняйлов) [2012, Война, психология, самиздат, WEBRip]

vairgin

17 | 7

128.58 МБ

В этой теме нет новых непрочитанных сообщений. Как вернуть возлюбленного (Алексей Меняйлов) [2016, История, психология, самиздат, WEBRip]

vairgin

6 | 4

70.48 МБ

В этой теме нет новых непрочитанных сообщений. Любовные повадки женщин (Алексей Меняйлов) [2013, мелодрама, детектив, приключения, WEBRip]

vairgin

47 | 9

232.9 МБ

В этой теме нет новых непрочитанных сообщений. Главная обязанность дона Корлеоне (Алексей Меняйлов) [2017, психология, самиздат, WEBRip]

vairgin

9 | 4

248.34 МБ

В этой теме нет новых непрочитанных сообщений. Загадка “Бриллиантовой руки” (Алексей Меняйлов) [2016, Комедия, психология, самиздат, WEBRip]

vairgin

19 | 10

68.87 МБ


СообщениеДобавлено: 13 ноя 2015, 01:27 

Не в сети
Аватара пользователя
Дата регистрации:
16 ноя 2012, 07:44
Возраст: 31
Спасибо: 0 / 0
Сообщения: 4
Откуда: Rossia
It — is impossible.

_________________
трезвый водитель услуга


Вернуться к началу
 Профиль Отправить личное сообщение  
 
Начать новую тему Ответить на тему  [ Сообщений: 2 ] 




Для Мосгорсуда, Роскомнадзора и рекламодателей:: mosgorsud-torrent[собачка]yandex.ru
cron