Торрент файл
скачать торрент магнет ссылка Добавлен: 16 сен 2015, 23:25
Размер: 582.44 МБ
Сидеров: 21
Личеров: 2
Автор

СообщениеДобавлено: 16 сен 2015, 23:25 

Не в сети
Дата регистрации:
27 апр 2014, 21:05
Спасибо: 8 / 0
Сообщения: 61
Секрет успеха от древних самураев

Перевод: Не требуется, cубтитры: отсутствуют
Формат: WEBRip, AVI, DivX, MP3
Страна: Россия
Режиссер: Алексей Меняйлов
Жанр: самиздат, психология, приключения
Продолжительность: 00:48:12
Год выпуска: 2015

Описание: Чем на самом деле занимался Эркюль Пуаро, что у него общего с самураями и еще еще один секрет в понимании поведения людей.

Видео: 720x406 (1.77:1), 30 fps, DivX Codec 5.x or 6.x ~1485 kbps avg, 0.17 bit/pixel
Аудио: 48 kHz, MPEG Layer 3, 2 ch, ~192.00 kbps avg

Доп. информация: производство "Партизанская правда партизан"


Общее
Формат : AVI
Формат/Информация : Audio Video Interleave
Размер файла : 582 Мбайт
Продолжительность : 48 м.
Общий поток : 1689 Кбит/сек

Видео
Идентификатор : 0
Формат : MPEG-4 Visual
Параметр BVOP формата : 1
Параметр QPel формата : Нет
Параметр GMC формата : Без точки перехода
Параметр матрицы формата : Default (H.263)
Режим смешивания : Сжатый битовый поток
Идентификатор кодека : DX50
Идентификатор кодека/Подсказка : DivX 5
Продолжительность : 48 м.
Битрейт : 1486 Кбит/сек
Ширина : 720 пикселей
Высота : 406 пикселей
Соотношение сторон : 16:9
Частота кадров : 30,000 кадров/сек
Цветовое пространство : YUV
Субдискретизация насыщенности : 4:2:0
Битовая глубина : 8 бит
Тип развёртки : Прогрессивная
Метод сжатия : С потерями
Бит/(Пиксели*Кадры) : 0.169
Размер потока : 512 Мбайт (88%)
Заголовок : Video
Библиотека кодирования : DivX 2682

Аудио
Идентификатор : 1
Формат : MPEG Audio
Версия формата : Version 1
Профиль формата : Layer 3
Режим : Joint stereo
Расширение режима : MS Stereo
Идентификатор кодека : 55
Идентификатор кодека/Подсказка : MP3
Продолжительность : 48 м.
Вид битрейта : Постоянный
Битрейт : 192 Кбит/сек
Каналы : 2 канала
Частота : 48,0 КГц
Метод сжатия : С потерями
Размер потока : 66,2 Мбайт (11%)
Выравнивание : Разделение по промежуткам
Продолжительность промежутка : 33 мс. (1,00 видеокадр)
Время предзагрузки промежутка : 500 мс.
Заголовок : Audio - en-US01










реклама партнёра


Вернуться к началу
 Профиль Отправить личное сообщение  
 
   Похожие торренты   Автор   Торрент   Размер 
В этой теме нет новых непрочитанных сообщений. Второй признак суженой (Алексей Меняйлов) [2015, самиздат, психология, приключения, WEBRip]

vairgin

26 | 2

185.32 МБ

В этой теме нет новых непрочитанных сообщений. Как вернуть возлюбленного (Алексей Меняйлов) [2016, История, психология, самиздат, WEBRip]

vairgin

6 | 4

70.48 МБ

В этой теме нет новых непрочитанных сообщений. Загадка “Бриллиантовой руки” (Алексей Меняйлов) [2016, Комедия, психология, самиздат, WEBRip]

vairgin

19 | 10

68.87 МБ

В этой теме нет новых непрочитанных сообщений. Как узнать тайную мечту своей девушки? (Алексей Меняйлов) [2016, Комедия, психология, самиздат, WEBRip]

vairgin

4 | 2

131.76 МБ

В этой теме нет новых непрочитанных сообщений. Как имитируют изюминку самые эротичные женщины (Алексей Меняйлов) [2016, Психология, комедия, самиздат, WEBRip]

vairgin

22 | 3

113.99 МБ

В этой теме нет новых непрочитанных сообщений. Как снять мужика в метро вплоть до брака? (Алексей Меняйлов) [2016, Комедия, психология, самиздат, WEBRip]

vairgin

24 | 11

121.67 МБ

В этой теме нет новых непрочитанных сообщений. Какое лицо у женщины, которая хочет тебя? (Алексей Меняйлов) [2015, приключения, психология, WEBRip]

vairgin

29 | 9

245.75 МБ


Начать новую тему Ответить на тему  [ 1 сообщение ] 




Для Мосгорсуда, Роскомнадзора и рекламодателей:: mosgorsud-torrent[собачка]yandex.ru