Торрент файл
скачать торрент магнет ссылка Добавлен: 26 авг 2015, 22:09
Размер: 226.44 МБ
Сидеров: 78
Личеров: 8
Автор

СообщениеДобавлено: 26 авг 2015, 22:09 

Не в сети
Дата регистрации:
27 апр 2014, 21:05
Спасибо: 11 / 0
Сообщения: 65
Проститутки 74-й роты (Женское отделение 74-й роты / Prostitute 74th Branch)

Перевод: Не требуется, cубтитры: отсутствуют
Формат: WEBRip, AVI, DivX, MP3
Страна: Россия
Режиссер: Алексей Меняйлов
Жанр: комедия, военный
Продолжительность: 00:19:14
Год выпуска: 2014

Описание: Проститутки всегда привлекали острое внимание всех. И это не случайно. Когда проститутка предлагает себя, она не просто так себя предлагает. У проституток есть профессиональный секрет. Попробуй-ка выведай! Как бы что не оторвали.

Видео: MPEG4, DivX 5, 720x406 (16:9), 25.000 fps, 1 443 Kbps (0.197 bit/pixel)
Аудио: MP3, 48.0 KHz, 2 ch, 192 Kbps, CBR

Доп. информация: Производство: Партизанская правда партизан


Общее
Формат : AVI
Формат/Информация : Audio Video Interleave
Размер файла : 226 Мбайт
Продолжительность : 19 м.
Общий поток : 1645 Кбит/сек

Видео
Идентификатор : 0
Формат : MPEG-4 Visual
Параметр BVOP формата : 1
Параметр QPel формата : Нет
Параметр GMC формата : Без точки перехода
Параметр матрицы формата : Default (H.263)
Режим смешивания : Сжатый битовый поток
Идентификатор кодека : DX50
Идентификатор кодека/Подсказка : DivX 5
Продолжительность : 19 м.
Битрейт : 1443 Кбит/сек
Ширина : 720 пикселей
Высота : 406 пикселей
Соотношение сторон : 16:9
Частота кадров : 25,000 кадров/сек
Цветовое пространство : YUV
Субдискретизация насыщенности : 4:2:0
Битовая глубина : 8 бит
Тип развёртки : Прогрессивная
Метод сжатия : С потерями
Бит/(Пиксели*Кадры) : 0.197
Размер потока : 199 Мбайт (88%)
Заголовок : Video
Библиотека кодирования : DivX 2682

Аудио
Идентификатор : 1
Формат : MPEG Audio
Версия формата : Version 1
Профиль формата : Layer 3
Режим : Joint stereo
Расширение режима : MS Stereo
Идентификатор кодека : 55
Идентификатор кодека/Подсказка : MP3
Продолжительность : 19 м.
Вид битрейта : Постоянный
Битрейт : 192 Кбит/сек
Каналы : 2 канала
Частота : 48,0 КГц
Метод сжатия : С потерями
Размер потока : 26,4 Мбайт (12%)
Выравнивание : Разделение по промежуткам
Продолжительность промежутка : 40 мс. (1,00 видеокадр)
Время предзагрузки промежутка : 500 мс.
Заголовок : Audio - en-US01










реклама партнёра


Вернуться к началу
 Профиль Отправить личное сообщение  
 
   Похожие торренты   Автор   Торрент   Размер 
В этой теме нет новых непрочитанных сообщений. Особенности поведения женщин-мигранток (Алексей Меняйлов) [2014, комедия, военный, WEBRip]

vairgin

17 | 3

119.72 МБ

В этой теме нет новых непрочитанных сообщений. Таинственные исчезновения Сталина из его 2-ой ссылки (Алексей Меняйлов) [2014, военный, история, комедия, WEBRip]

vairgin

64 | 3

1005.34 МБ

В этой теме нет новых непрочитанных сообщений. Парни из роты С / The Boys in Company C [драма, военный, 1978] BDRemux 1080p, Avo

salma3

24 | 39

21.35 ГБ

В этой теме нет новых непрочитанных сообщений. Недооформлен Как правильно закопать после расстрела ("Партизаны в степях Украины", 1942) (Алексей Меняйлов) [2014, военный, подвиг, драма, WEBRip] Данный торрент является блокированным, причина: недооформленный торрент

vairgin

36 | 33

579.28 МБ

В этой теме нет новых непрочитанных сообщений. Созвездие Змееносец - ученик великого сыщика Пуаро (Алексей Меняйлов) [2014, комедия, криминал, детектив, WEBRip]

vairgin

11 | 3

266.1 МБ

В этой теме нет новых непрочитанных сообщений. "Надо" товарища Сталина ("День командира дивизии") (Алексей Меняйлов) [2014, военный, документальный, история, WEBRip]

vairgin

75 | 18

328.03 МБ

В этой теме нет новых непрочитанных сообщений. Возможности древней приметы "посидим на дорожку" (Алексей Меняйлов) [2015, Психология, приключения, военный, WEBRip]

vairgin

39 | 5

326.37 МБ


Начать новую тему Ответить на тему  [ 1 сообщение ] 




Для Мосгорсуда, Роскомнадзора и рекламодателей:: mosgorsud-torrent[собачка]yandex.ru