Торрент файл
скачать торрент магнет ссылка Добавлен: 19 авг 2015, 22:10
Размер: 266.1 МБ
Сидеров: 11
Личеров: 1
Автор

СообщениеДобавлено: 19 авг 2015, 22:10 

Не в сети
Дата регистрации:
27 апр 2014, 21:05
Спасибо: 8 / 0
Сообщения: 61
Созвездие Змееносец - ученик великого сыщика Пуаро

Перевод: Не требуется, cубтитры: отсутствуют
Формат: WEBRip, AVI, DivX, MP3
Страна: Россия
Режиссер: Алексей Меняйлов
Жанр: комедия, криминал, детектив
Продолжительность: 00:31:49
Год выпуска: 2014

Описание: Карта Неба - великолепное наследие предков. Рассмотрение отдельных фрагментов Карты Неба доставляет неизъяснимое удовольствие, не говоря уж о пользе. В этой серии мы рассмотрим сведение двух созвездий лицом к лицу - созвездия Геракл и созвездия Змееносец.

Видео: MPEG4, DivX 5, 720x406 (16:9), 25.000 fps, 967 Kbps (0.132 bit/pixel)
Аудио: MP3, 48.0 KHz, 2 ch, 192 Kbps, CBR

Доп. информация: Партизанская правда партизан


Общее
Формат : AVI
Формат/Информация : Audio Video Interleave
Размер файла : 266 Мбайт
Продолжительность : 31 м.
Общий поток : 1169 Кбит/сек

Видео
Идентификатор : 0
Формат : MPEG-4 Visual
Параметр BVOP формата : 1
Параметр QPel формата : Нет
Параметр GMC формата : Без точки перехода
Параметр матрицы формата : Default (H.263)
Режим смешивания : Сжатый битовый поток
Идентификатор кодека : DX50
Идентификатор кодека/Подсказка : DivX 5
Продолжительность : 31 м.
Битрейт : 967 Кбит/сек
Ширина : 720 пикселей
Высота : 406 пикселей
Соотношение сторон : 16:9
Частота кадров : 25,000 кадров/сек
Цветовое пространство : YUV
Субдискретизация насыщенности : 4:2:0
Битовая глубина : 8 бит
Тип развёртки : Прогрессивная
Метод сжатия : С потерями
Бит/(Пиксели*Кадры) : 0.132
Размер потока : 220 Мбайт (83%)
Заголовок : Video
Библиотека кодирования : DivX 2682

Аудио
Идентификатор : 1
Формат : MPEG Audio
Версия формата : Version 1
Профиль формата : Layer 3
Режим : Joint stereo
Расширение режима : MS Stereo
Идентификатор кодека : 55
Идентификатор кодека/Подсказка : MP3
Продолжительность : 31 м.
Вид битрейта : Постоянный
Битрейт : 192 Кбит/сек
Каналы : 2 канала
Частота : 48,0 КГц
Метод сжатия : С потерями
Размер потока : 43,7 Мбайт (16%)
Выравнивание : Разделение по промежуткам
Продолжительность промежутка : 40 мс. (1,00 видеокадр)
Время предзагрузки промежутка : 500 мс.
Заголовок : Audio - en-US01










реклама партнёра


Вернуться к началу
 Профиль Отправить личное сообщение  
 
   Похожие торренты   Автор   Торрент   Размер 
В этой теме нет новых непрочитанных сообщений. Особенности поведения женщин-мигранток (Алексей Меняйлов) [2014, комедия, военный, WEBRip]

vairgin

17 | 2

119.72 МБ

В этой теме нет новых непрочитанных сообщений. Таинственные исчезновения Сталина из его 2-ой ссылки (Алексей Меняйлов) [2014, военный, история, комедия, WEBRip]

vairgin

64 | 3

1005.34 МБ

В этой теме нет новых непрочитанных сообщений. Такой вот неизвестный, но ломовой приём - 2 ("Бойня в день Святого Валентина") (Алексей Меняйлов) [2014, документальный, криминал.WEBRip]

vairgin

9 | 6

291.46 МБ

В этой теме нет новых непрочитанных сообщений. Любовные повадки женщин (Алексей Меняйлов) [2013, мелодрама, детектив, приключения, WEBRip]

vairgin

47 | 8

232.9 МБ

В этой теме нет новых непрочитанных сообщений. Проститутки 74-й роты (Женское отделение 74-й роты / Prostitute 74th Branch) (Алексей Меняйлов) [2014, комедия, военный, WEBRip]

vairgin

78 | 8

226.44 МБ

В этой теме нет новых непрочитанных сообщений. Рокфеллер и Сталин - нюанс аномальной власти (Алексей Меняйлов) [2014, драма, приключения, биография, WEBRip]

vairgin

45 | 6

776.42 МБ

В этой теме нет новых непрочитанных сообщений. Загадка “Бриллиантовой руки” (Алексей Меняйлов) [2016, Комедия, психология, самиздат, WEBRip]

vairgin

19 | 10

68.87 МБ


Начать новую тему Ответить на тему  [ 1 сообщение ] 




Для Мосгорсуда, Роскомнадзора и рекламодателей:: mosgorsud-torrent[собачка]yandex.ru