Торрент файл
скачать торрент магнет ссылка Добавлен: 29 июл 2015, 22:32
Размер: 1005.34 МБ
Сидеров: 64
Личеров: 3
Автор

СообщениеДобавлено: 29 июл 2015, 22:32 

Не в сети
Дата регистрации:
27 апр 2014, 21:05
Спасибо: 10 / 0
Сообщения: 64
Таинственные исчезновения Сталина из его 2-ой ссылки

Перевод: Не требуется, cубтитры: отсутствуют
Формат: WEBRip, AVI, DivX, MP3
Страна: Россия
Режиссер: Алексей Меняйлов
Жанр: военный, история, комедия
Продолжительность: 01:29:17
Год выпуска: 2014

Описание: Из своей 2-ой ссылки, в Сольвычегодск, Сталин таинственным образом исчезал. Причем делал это на пару с лесопромышленником Некрасовым. Они укатывали на тройке Некрасова и жандармам, уж точно, догнать их было невозможно. Ну, а дальше начиналось самое интересное. Об этом рассказали приемные дети волхва Афанасия Черных-Белых.

Видео: MPEG4, DivX 5, 640x360 (16:9), 25.000 fps, 1 373 Kbps (0.238 bit/pixel)
Аудио: MP3, 48.0 KHz, 2 ch, 192 Kbps, CBR

Доп. информация: Партизанская правда партизан


General
Формат : AVI
Формат/Информация : Audio Video Interleave
Размер файла : 1 005 MiB
Продолжительность : 1h 29mn
Общий поток : 1 574 Kbps

Video
Идентификатор : 0
Формат : MPEG-4 Visual
Параметр BVOP формата : 1
Параметр QPel формата : No
Параметр GMC формата : No warppoints
Параметр матрицы формата : Default (H.263)
Режим смешивания : Packed bitstream
Идентификатор кодека : DX50
Идентификатор кодека/Подсказка : DivX 5
Продолжительность : 1h 29mn
Битрейт : 1 373 Kbps
Ширина : 640 pixels
Высота : 360 pixels
Соотношение сторон : 16:9
Частота кадров : 25.000 fps
Цветовое пространство : YUV
Субдискретизация насыщенности : 4:2:0
Битовая глубина : 8 bits
Тип развёртки : Progressive
Метод сжатия : Lossy
Бит/(Пиксели*Кадры) : 0.238
Размер потока : 877 MiB (87%)
Заголовок : Video
Библиотека кодирования : DivX 2682

Audio
Идентификатор : 1
Формат : MPEG Audio
Версия формата : Version 1
Профиль формата : Layer 3
Режим : Joint stereo
Расширение режима : MS Stereo
Идентификатор кодека : 55
Идентификатор кодека/Подсказка : MP3
Продолжительность : 1h 29mn
Вид битрейта : Constant
Битрейт : 192 Kbps
Каналы : 2 channels
Частота : 48.0 KHz
Метод сжатия : Lossy
Размер потока : 123 MiB (12%)
Выравнивание : Split accross interleaves
Продолжительность промежутка : 40 ms (1.00 video frame)
Время предзагрузки промежутка : 500 ms
Заголовок : Audio - en-US01










реклама партнёра


Вернуться к началу
 Профиль Отправить личное сообщение  
 
   Похожие торренты   Автор   Торрент   Размер 
В этой теме нет новых непрочитанных сообщений. Таинственные исчезновения Сталина из его 2-ой ссылки ("Белый взрыв", "Сталин") Меняйлов [2014, военный, история, комедия, HDRip]

vairgin

2 | 3

1.38 ГБ

В этой теме нет новых непрочитанных сообщений. "Надо" товарища Сталина ("День командира дивизии") (Алексей Меняйлов) [2014, военный, документальный, история, WEBRip]

vairgin

75 | 18

328.03 МБ

В этой теме нет новых непрочитанных сообщений. Особенности поведения женщин-мигранток (Алексей Меняйлов) [2014, комедия, военный, WEBRip]

vairgin

17 | 2

119.72 МБ

В этой теме нет новых непрочитанных сообщений. Проститутки 74-й роты (Женское отделение 74-й роты / Prostitute 74th Branch) (Алексей Меняйлов) [2014, комедия, военный, WEBRip]

vairgin

78 | 8

226.44 МБ

В этой теме нет новых непрочитанных сообщений. Недооформлен Как правильно закопать после расстрела ("Партизаны в степях Украины", 1942) (Алексей Меняйлов) [2014, военный, подвиг, драма, WEBRip] Данный торрент является блокированным, причина: недооформленный торрент

vairgin

36 | 33

579.28 МБ

В этой теме нет новых непрочитанных сообщений. Как вернуть возлюбленного (Алексей Меняйлов) [2016, История, психология, самиздат, WEBRip]

vairgin

6 | 4

70.48 МБ

В этой теме нет новых непрочитанных сообщений. Палач: последняя тень (Алексей Меняйлов) [2015, история, документальный, WEBRip]

vairgin

24 | 13

1.03 ГБ


Начать новую тему Ответить на тему  [ 1 сообщение ] 




Для Мосгорсуда, Роскомнадзора и рекламодателей:: mosgorsud-torrent[собачка]yandex.ru