Торрент файл
скачать торрент магнет ссылка Добавлен: 10 июл 2015, 22:28
Размер: 37.73 МБ
Сидеров: 26
Личеров: 4
Автор

СообщениеДобавлено: 10 июл 2015, 22:28 

Не в сети
Дата регистрации:
27 апр 2014, 21:05
Спасибо: 10 / 0
Сообщения: 64
Позорная тайна скачущей Украины

Перевод: Не требуется, cубтитры: отсутствуют
Формат: WEBRip, AVI, DivX, MP3
Страна: Россия
Режиссер: Алексей Меняйлов
Жанр: политика, психология, юмор
Продолжительность: 00:04:33
Год выпуска: 2015

Описание: Видео о том, для чего все таки скачут украинцы, чего они добиваются. Есть такой способ, прежде чем совершить большую мерзость, нужно подготовиться, к примеру попрыгать.

Видео: MPEG4, DivX 5, 720x406 (16:9), 25.000 fps, 956 Kbps (0.131 bit/pixel)
Аудио: MP3, 48.0 KHz, 2 ch, 192 Kbps, CBR

Доп. информация: Партизанская правда партизан


General
Формат : AVI
Формат/Информация : Audio Video Interleave
Размер файла : 37.7 MiB
Продолжительность : 4mn 33s
Общий поток : 1 158 Kbps

Video
Идентификатор : 0
Формат : MPEG-4 Visual
Параметр BVOP формата : 1
Параметр QPel формата : No
Параметр GMC формата : No warppoints
Параметр матрицы формата : Default (H.263)
Режим смешивания : Packed bitstream
Идентификатор кодека : DX50
Идентификатор кодека/Подсказка : DivX 5
Продолжительность : 4mn 33s
Битрейт : 956 Kbps
Ширина : 720 pixels
Высота : 406 pixels
Соотношение сторон : 16:9
Частота кадров : 25.000 fps
Цветовое пространство : YUV
Субдискретизация насыщенности : 4:2:0
Битовая глубина : 8 bits
Тип развёртки : Progressive
Метод сжатия : Lossy
Бит/(Пиксели*Кадры) : 0.131
Размер потока : 31.2 MiB (83%)
Заголовок : Video
Библиотека кодирования : DivX 2682

Audio
Идентификатор : 1
Формат : MPEG Audio
Версия формата : Version 1
Профиль формата : Layer 3
Режим : Joint stereo
Расширение режима : MS Stereo
Идентификатор кодека : 55
Идентификатор кодека/Подсказка : MP3
Продолжительность : 4mn 33s
Вид битрейта : Constant
Битрейт : 192 Kbps
Каналы : 2 channels
Частота : 48.0 KHz
Метод сжатия : Lossy
Размер потока : 6.26 MiB (17%)
Выравнивание : Split accross interleaves
Продолжительность промежутка : 40 ms (1.00 video frame)
Время предзагрузки промежутка : 500 ms
Заголовок : Audio - en-US01










реклама партнёра


Вернуться к началу
 Профиль Отправить личное сообщение  
 
   Похожие торренты   Автор   Торрент   Размер 
В этой теме нет новых непрочитанных сообщений. Почему девушки так торопятся дать? (Алексей Меняйлов) [2015, Психология, юмор, WEBRip]

vairgin

160 | 9

168.52 МБ

В этой теме нет новых непрочитанных сообщений. Второй признак суженой (Алексей Меняйлов) [2015, самиздат, психология, приключения, WEBRip]

vairgin

26 | 2

185.32 МБ

В этой теме нет новых непрочитанных сообщений. Проститутка как этап в жизни великих (Алексей Меняйлов) [2015, биография, история, психология, WEBRip]

vairgin

15 | 2

251.68 МБ

В этой теме нет новых непрочитанных сообщений. Секрет успеха от древних самураев (Алексей Меняйлов) [2015, самиздат, психология, приключения, WEBRip]

vairgin

21 | 2

582.44 МБ

В этой теме нет новых непрочитанных сообщений. Какое лицо у женщины, которая хочет тебя? (Алексей Меняйлов) [2015, приключения, психология, WEBRip]

vairgin

29 | 9

245.75 МБ

В этой теме нет новых непрочитанных сообщений. Возможности древней приметы "посидим на дорожку" (Алексей Меняйлов) [2015, Психология, приключения, военный, WEBRip]

vairgin

39 | 5

326.37 МБ

В этой теме нет новых непрочитанных сообщений. Как вернуть возлюбленного (Алексей Меняйлов) [2016, История, психология, самиздат, WEBRip]

vairgin

6 | 4

70.48 МБ


Начать новую тему Ответить на тему  [ 1 сообщение ] 




Для Мосгорсуда, Роскомнадзора и рекламодателей:: mosgorsud-torrent[собачка]yandex.ru