Торрент файл
скачать торрент магнет ссылка Добавлен: 18 мар 2017, 05:07
Размер: 1.07 ГБ
Сидеров: 0
Личеров: 1
Автор

СообщениеДобавлено: 18 мар 2017, 05:07 

Не в сети
Супермодератор
Аватара пользователя
Дата регистрации:
15 фев 2012, 16:44
Возраст: 28
Спасибо: 6584 / 2144
Сообщения: 44064
Производство: The X PRIZE Foundation
Жанр: Документальный

Ведущий: Tim Allen

Описание:
Фильм повествует о международных командах,соревнующихся за самую большую поощрительную премию в истории, в попытке впервые за более чем 40 лет посадить на Луну управляемый луноход.Лунная Премия Google и Фонда XPRIZE представлена как крупнейшее на сегодняшний день соревнование, целью которого является демократизировать космос и создать новые возможности для окончательного возвращения роботов и человека на Луну.

Продолжительность: ~00:25:00
Качество видео: HDTVRip
Перевод: Одноголосый закадровый, профессиональный

Видео: AVC/H.264, 1920x1080 (16:9), ~6000 Кбит/сек
Аудио: AAC, 2 канала, 152 Кбит/сек

Код:

Общее
Полное имя : E:Back To The Moon For Good _ Google Lun_[NNMClub].mp4
Формат : MPEG-4
Профиль формата : Base Media
Идентификатор кодека : isom (isom/iso2/avc1/mp41)
Размер файла : 1,07 Гбайт
Продолжительность : 24 м.
Режим общего битрейта : Переменный
Общий поток : 6158 Кбит/сек
Программа кодирования : Lavf56.40.101

Видео
Идентификатор : 1
Формат : AVC
Формат/Информация : Advanced Video Codec
Профиль формата : High@L4
Параметр CABAC формата : Да
Параметр ReFrames формата : 5 кадров
Идентификатор кодека : avc1
Идентификатор кодека/Информация : Advanced Video Coding
Продолжительность : 24 м.
Битрейт : 6000 Кбит/сек
Ширина : 1920 пикселей
Высота : 1080 пикселей
Соотношение сторон : 16:9
Режим частоты кадров : Постоянный
Частота кадров : 30,000 кадров/сек
Цветовое пространство : YUV
Субдискретизация насыщенности : 4:2:0
Битовая глубина : 8 бит
Тип развёртки : Прогрессивная
Бит/(Пиксели*Кадры) : 0.096
Размер потока : 1,04 Гбайт (97%)
Библиотека кодирования : x264 core 148 r2638 7599210
Настройки программы : cabac=1 / ref=5 / deblock=1:0:0 / analyse=0x3:0x113 / me=umh / subme=8 / psy=1 / psy_rd=1.00:0.00 / mixed_ref=1 / me_range=8 / chroma_me=1 / trellis=1 / 8x8dct=1 / cqm=0 / deadzone=21,11 / fast_pskip=1 / chroma_qp_offset=-2 / threads=4 / lookahead_threads=1 / sliced_threads=0 / nr=0 / decimate=1 / interlaced=0 / bluray_compat=0 / constrained_intra=0 / bframes=3 / b_pyramid=2 / b_adapt=2 / b_bias=0 / direct=3 / weightb=1 / open_gop=0 / weightp=2 / keyint=300 / keyint_min=30 / scenecut=40 / intra_refresh=0 / rc_lookahead=50 / rc=2pass / mbtree=1 / bitrate=6000 / ratetol=1.0 / qcomp=0.60 / qpmin=0 / qpmax=69 / qpstep=4 / cplxblur=20.0 / qblur=0.5 / vbv_maxrate=9000 / vbv_bufsize=24000 / nal_hrd=none / filler=0 / ip_ratio=1.40 / aq=1:1.00

Аудио
Идентификатор : 2
Формат : AAC
Формат/Информация : Advanced Audio Codec
Профиль формата : LC
Идентификатор кодека : 40
Продолжительность : 24 м.
Вид битрейта : Переменный
Битрейт : 152 Кбит/сек
Максимальный битрейт : 9000 Кбит/сек
Каналы : 2 канала
Расположение каналов : Front: L R
Частота : 44,1 КГц
Частота кадров : 43,066 кадра/сек (1024 spf)
Метод сжатия : С потерями
Размер потока : 26,9 Мбайт (2%)
Default : Да
Alternate group : 1

Луна сегодня снова становится популярна, причем очень сильно. Как и в славные 60-е и 70-е, наш космический сосед снова наслаждается вниманием лунных исследователей. Только на этот раз они намерены вернуться на Луну навсегда.Фильм “Обратно на Луну Навсегда” повествует о международных командах,соревнующихся за самую большую поощрительную премию в истории в попытке впервые за более чем 40 лет посадить на Луну управляемый луноход. Фильм начинается рассказом о первой эре космических исследований в конце 60-х и начале 70-х годов прошлого столетия. Мы узнаем о результатах работы лунных станций и спутников, о происхождение Луны, ее химическом составе, структуре и наличии полезных ископаемых на ее поверхности.Лунная Премия Google и Фонда XPRIZE представлена как крупнейшее на сегодняшний день соревнование, целью которого является демократизировать космос и создать новые возможности для окончательного возвращения роботов и человека на Луну. Вы увидите инженерные изобретения и инновационные шаги, предпринятые международными командами в попытке посадить космический аппарат на Луну и побороться за дополнительные призы. В центре нашего внимания окажутся дух соревнования и сотрудничества, когда команды примут этот смелый вызов.
Кто выиграет премию Лунную Премию в 30 миллионов долларов? Зрители увидят успешный запуск аппарата, посадку и путешествие по Лунной поверхности. Фильм заканчивается взглядом на потрясающую перспективу нашего будущего на Луне.


Скриншоты:

Играю на аккордеоне за "Спасибо"




_________________
Проголосуй за трекер Открытый торрент трекер - RUS-MEDIA.ORG

Проголосуй Открытый торрент трекер - RUS-MEDIA.ORG



реклама партнёра


Вернуться к началу
 Профиль Отправить личное сообщение  
 
   Похожие торренты   Автор   Торрент   Размер 
В этой теме нет новых непрочитанных сообщений. Kristen Scott - Обратно В Школу / Back To School (2016) SiteRip

salma3

151 | 6

300.73 МБ

В этой теме нет новых непрочитанных сообщений. Ответный удар / Strike Back / 5 сезон 1-10 серии из 10 [драма, боевик, 2015] HDTVRip 720р, Mvo [BaibaKo]

salma3

25 | 37

15.54 ГБ

В этой теме нет новых непрочитанных сообщений. Ответный удар / Strike Back [S05] (Майкл Дж. Бассет, Джулиан Холмс) [2015, Боевик, триллер, драма, HDTVRip 1080p | Novamedia]

Nickolas3435

29 | 18

16.75 ГБ

В этой теме нет новых непрочитанных сообщений. Навсегда / Forever [Триллер, драма, 2015] WEBDLRip, Mvo

salma3

109 | 33

1.37 ГБ

В этой теме нет новых непрочитанных сообщений. Однажды и навсегда (Артем Насыбулин) [Мелодрама, 2015] WEB-DLRip

Dracon

94 | 0

1.37 ГБ

В этой теме нет новых непрочитанных сообщений. Однажды и навсегда (Артем Насыбулин) [Мелодрама, 2015] WEB-DL 1080p

Dracon

670 | 119

1.83 ГБ

В этой теме нет новых непрочитанных сообщений. Останьтесь навсегда [Серия 1-4 из 4] (Сергей Гиргель) [Мелодрама, 2015] SATRip

Dracon

130 | 10

2.22 ГБ


Начать новую тему Ответить на тему  [ 1 сообщение ] 




Для Мосгорсуда, Роскомнадзора и рекламодателей:: mosgorsud-torrent[собачка]yandex.ru