Торрент файл
скачать торрент магнет ссылка Добавлен: 18 мар 2017, 05:06
Размер: 835.18 МБ
Сидеров: 0
Личеров: 0
Автор

СообщениеДобавлено: 18 мар 2017, 05:06 

В сети
Супермодератор
Аватара пользователя
Дата регистрации:
15 фев 2012, 16:44
Возраст: 29
Спасибо: 7380 / 2147
Сообщения: 76270
Год выпуска: 2013
Страна: США
Студия: Universal Pictures
Жанр: Документальный
Продолжительность: 0:51:33
Перевод: Профессиональный (дублированный)

Режиссер: Манфред Леманн / Manfred Lehmann, Глен МакКреди / Glen McCready

Описание: Звездное небо было объектом внимания людей с доисторических времен. И неудивительно, ведь именно в глубинах вселенной зародилась жизнь. В наши дни, благодаря современным технологиям, самые невероятные и удивительные секреты вселенной стали доступны для понимания. Космические корабли и роботизированные зонды исследуют, сканируют и фотографируют миллиарды отдаленных планет. С помощью уникальной передовой технологии «Наша вселенная 3D» даст вам возможность насладиться сногсшибательными видами и разгадать необыкновенные звездные феномены, не выходя из дома...



Качество: HDRip
Формат:AVI
Видео кодек: XviD
Аудио кодек: AC-3
Видео: 16:9, 2000 Кбит/сек, 720x400, 25,000 кадров/сек
Аудио: AC-3, 2 канала, 256 Кбит/сек, 48,0 КГц

Общее
Полное имя : D:Our.Universe.[R.G.RealMT].avi
Формат : AVI
Формат/Информация : Audio Video Interleave
Размер файла : 835 Мбайт
Продолжительность : 51 м.
Общий поток : 2265 Кбит/сек
Программа кодирования : VirtualDubMod 1.5.10.3 | http://www.virtualdub-fr.org || (build 2550/release)
Библиотека кодирования : VirtualDubMod build 2550/release

Видео
Идентификатор : 0
Формат : MPEG-4 Visual
Профиль формата : Advanced Simple@L5
Параметр BVOP формата : 2
Параметр QPel формата : Нет
Параметр GMC формата : Без точки перехода
Параметр матрицы формата : Default (H.263)
Режим смешивания : Сжатый битовый поток
Идентификатор кодека : XVID
Идентификатор кодека/Подсказка : XviD
Продолжительность : 51 м.
Битрейт : 2000 Кбит/сек
Ширина : 720 пикселей
Высота : 400 пикселей
Соотношение сторон : 16:9
Частота кадров : 23,976 кадра/сек
Цветовое пространство : YUV
Субдискретизация насыщенности : 4:2:0
Битовая глубина : 8 бит
Тип развёртки : Прогрессивная
Метод сжатия : С потерями
Бит/(Пиксели*Кадры) : 0.290
Размер потока : 737 Мбайт (88%)
Библиотека кодирования : XviD 1.2.1 (UTC 2008-12-04)

Аудио
Идентификатор : 1
Формат : AC-3
Формат/Информация : Audio Coding 3
Расширение режима : CM (complete main)
Параметр Endianness формата : Big
Идентификатор кодека : 2000
Продолжительность : 51 м.
Вид битрейта : Постоянный
Битрейт : 256 Кбит/сек
Каналы : 2 канала
Расположение каналов : Front: L R
Частота : 48,0 КГц
Битовая глубина : 16 бит
Метод сжатия : С потерями
Размер потока : 94,4 Мбайт (11%)
Выравнивание : Разделение по промежуткам
Продолжительность промежутка : 42 мс. (1,00 видеокадр)
Время предзагрузки промежутка : 500 мс.




_________________
Проголосуй за трекер Открытый торрент трекер - RUS-MEDIA.ORG

Проголосуй Открытый торрент трекер - RUS-MEDIA.ORG


Вернуться к началу
 Профиль Отправить личное сообщение  
 
   Похожие торренты   Автор   Торрент   Размер 
В этой теме нет новых непрочитанных сообщений. Как устроена Вселенная (Сезон 2: 8 серий из 8 ) / How the Universe Works (Адам Уорнер) [2012, документальный, LowHDTVRip] VO

salma3

1 | 5

4.97 ГБ

В этой теме нет новых непрочитанных сообщений. Большая история: Вселенная. Тайны солнечной бездны (Александр Милославов) [2008, документальный, SATRip]

salma3

1 | 3

779.12 МБ

В этой теме нет новых непрочитанных сообщений. BBC: Горизонт. Большая часть Вселенной невидима / BBC. Horizon. Most of our Universe is Missing (Грехам Стронг) [2006, документальный, SATRip] VO

salma3

3 | 2

445.28 МБ

В этой теме нет новых непрочитанных сообщений. Тайны Вселенной. Немезида - Злобный спутник Солнца / The Universe. Nemesis - The Sun's Evil Twin (Джон Томсон) [2011, документальный, BDRip-AVC (1080р)] VO

salma3

1 | 1

756.61 МБ

В этой теме нет новых непрочитанных сообщений. BBC. Horizon - Каковы размеры Вселенной? / BBC. Horizon - How Big is the Universe? (Кенни Скотт) [2012, документальный, научно-познавательный, LowHDTVRip] AVO

salma3

0 | 2

420.29 МБ

В этой теме нет новых непрочитанных сообщений. National Geographic: Путешествие на край Вселенной / National Geographic: Journey to the Edge of the Universe (Явар Аббас) [2008, документальный, космос, BDRip] DUB

salma3

6 | 1

1.46 ГБ

В этой теме нет новых непрочитанных сообщений. Братья и птицы (Светлана Быченко) [2013, документальный, приключения, природа, HDRip 720р]

salma3

0 | 0

1.08 ГБ


Начать новую тему Ответить на тему  [ 1 сообщение ] 




Для Мосгорсуда, Роскомнадзора и рекламодателей:: mosgorsud-torrent[собачка]yandex.ru
cron