Торрент файл
скачать торрент магнет ссылка Добавлен: 10 июл 2014, 20:44
Размер: 38.73 ГБ
Сидеров: 163
Личеров: 63
Автор

СообщениеДобавлено: 10 июл 2014, 20:44 

Не в сети
Зам. Админа
Аватара пользователя
Дата регистрации:
02 дек 2010, 12:39
Спасибо: 12569 / 214
Сообщения: 28057
Год выхода: 2014
Жанр: документальный
Режиссер: Брэннон Брага, Энн Драйэн, Билл Поуп
В ролях: Нил Тайсон, Питер Эмшвиллер, Петр Вальчук, Кристиана Аманпур, , Кирстен Данст, Кэри Элвис, Ричард Гир, Анна Джейн Джексон, Мартин Джарвис

Описание:
Документальный сериал рассказывает о последних научных открытиях, которые были сделаны в области астронавтики, астрофизики и других наук. Сериал «Космос: Путешествие во времени» является продолжением научно-популярной серии фильмов «Космос: Персональное путешествие с Карлом Саганом» и отражает события последних трех десятилетий. Астрофизик Нил Деграсс Тайсон с соавторами (среди которых вдова Сагана Энн Драйэн) расскажет об открытых законах мира космоса, о возможности межпланетных путешествий и наблюдении за космическими процессами. Все самые сложные понятия представлены с потрясающей четкостью, в повествовании соединяются научная точность и эмоциональность. Трехмерная компьютерная графика, уникальные съемки и использование спецэффектов делают каждый эпизод захватывающим и необычным.



Страна: США
Производство: Cosmos Studios, Fuzzy Door Productions, National Geographic Channel, Six Point Harness
Продолжительность: 13 x ~00:45:00
Перевод: Профессиональный (одноголосый, закадровый) Арк-ТВ
Субтитры: Отсутствуют

Сборка рипа - Messa-fan.

Формат: Matroska
Видео: 1280x720 at 23.976 fps, x264@L4.1, 2pass, 6420-10000 kbps avg
Аудио#1: Russian: 48 kHz, AC3, 2/0 (L,R) ch, ~192.00 kbps avg |Одноголосый закадровый, Арк-ТВ|
Аудио#2: English: 48 kHz, DTS, 3/2 (L,C,R,l,r) + LFE ch, ~1509.00 kbps avg

01: Standing Up in the Milky Way / Стоя на Млечном Пути
02: Some of the Things That Molecules Do / Молекулы
03: When Knowledge Conquered Fear / Когда знание победило страх
04: A Sky Full of Ghosts / Небо, полное призраков
05: Hiding in the Light / Спрятаться на свету
06: Deeper, Deeper, Deeper Still / Всё глубже и глубже
07: The Clean Room / Возраст Земли
08: Sisters of the Sun / Сёстры Солнца
09: The Lost Worlds of Planet Earth / Затерянные миры планеты Земля
10: The Electric Boy / Электрический мальчик
11: The Immortals / Бессмертные
12: The World Set Free / Освобожденный мир
13: Unafraid of the Dark / Нестрашная темнота
General
Unique ID : 183651028486359977809092764539279139834 (0x8A29E6C9396CC807BB7B3018362063FA)
Complete name : Cosmos.2014.S01E02.Some.of.the.Things.That.Molecules.Do.BDRip.720p.x264.Rus.Eng.mkv
Format : Matroska
Format version : Version 4 / Version 2
File size : 3.50 GiB
Duration : 45mn 14s
Overall bit rate : 11.1 Mbps
Movie name : Cosmos.2014.S01E02.Some.of.the.Things.That.Molecules.Do.BDRip.720p.x264.DTS.5.1-Messafan
Encoded date : UTC 2014-07-07 09:19:37
Writing application : mkvmerge v6.9.1 ('Blue Panther') 64bit built on Apr 18 2014 18:23:38
Writing library : libebml v1.3.0 + libmatroska v1.4.1

Video
ID : 1
Format : AVC
Format/Info : Advanced Video Codec
Format profile : High@L4.1
Format settings, CABAC : Yes
Format settings, ReFrames : 9 frames
Codec ID : V_MPEG4/ISO/AVC
Duration : 45mn 14s
Bit rate : 9 357 Kbps
Width : 1 280 pixels
Height : 720 pixels
Display aspect ratio : 16:9
Frame rate mode : Constant
Frame rate : 23.976 fps
Color space : YUV
Chroma subsampling : 4:2:0
Bit depth : 8 bits
Scan type : Progressive
Bits/(Pixel*Frame) : 0.423
Stream size : 2.89 GiB (83%)
Title : Cosmos.2014.S01E02.Some.of.the.Things.That.Molecules.Do.BDRip.720p.x264.DTS.5.1-Messafan
Writing library : x264 core 142 r2431kMod ac76440
Encoding settings : cabac=1 / ref=9 / deblock=1:-3:-3 / analyse=0x3:0x113 / me=umh / subme=10 / psy=1 / fade_compensate=0.00 / psy_rd=1.01:0.05 / mixed_ref=1 / me_range=32 / chroma_me=1 / trellis=2 / 8x8dct=1 / cqm=0 / deadzone=21,11 / fast_pskip=0 / chroma_qp_offset=-5 / threads=6 / lookahead_threads=1 / sliced_threads=0 / nr=0 / decimate=1 / interlaced=0 / bluray_compat=0 / constrained_intra=0 / fgo=0 / bframes=10 / b_pyramid=2 / b_adapt=2 / b_bias=0 / direct=3 / weightb=1 / open_gop=0 / weightp=1 / keyint=240 / keyint_min=23 / scenecut=40 / intra_refresh=0 / rc_lookahead=60 / rc=2pass / mbtree=1 / bitrate=9357 / ratetol=1.0 / qcomp=0.80 / qpmin=0 / qpmax=69 / qpstep=4 / cplxblur=20.0 / qblur=0.5 / vbv_maxrate=50000 / vbv_bufsize=62500 / nal_hrd=none / filler=0 / ip_ratio=1.25 / aq=1:0.70
Language : English
Default : Yes
Forced : No

Audio #1
ID : 2
Format : AC-3
Format/Info : Audio Coding 3
Mode extension : CM (complete main)
Format settings, Endianness : Big
Codec ID : A_AC3
Duration : 45mn 14s
Bit rate mode : Constant
Bit rate : 192 Kbps
Channel(s) : 2 channels
Channel positions : Front: L R
Sampling rate : 48.0 KHz
Bit depth : 16 bits
Compression mode : Lossy
Stream size : 62.1 MiB (2%)
Title : Nat Geo Rus / AC3 2.0 / 192kbps / 48KHz
Language : Russian
Default : Yes
Forced : No

Audio #2
ID : 3
Format : DTS
Format/Info : Digital Theater Systems
Mode : 16
Format settings, Endianness : Big
Codec ID : A_DTS
Duration : 45mn 14s
Bit rate mode : Constant
Bit rate : 1 509 Kbps
Channel(s) : 6 channels
Channel positions : Front: L C R, Side: L R, LFE
Sampling rate : 48.0 KHz
Bit depth : 24 bits
Compression mode : Lossy
Stream size : 488 MiB (14%)
Title : DTS / 5.1 / 1509 kbps / 48KHz
Language : English
Default : No
Forced : No

Menu
00:00:00.000 : en:Chapter 01
00:02:15.760 : en:Chapter 02
00:05:19.610 : en:Chapter 03
00:08:28.132 : en:Chapter 04
00:14:29.577 : en:Chapter 05
00:15:59.416 : en:Chapter 06
00:22:03.447 : en:Chapter 07
00:28:32.377 : en:Chapter 08
00:33:34.220 : en:Chapter 09
00:35:28.292 : en:Chapter 10
00:39:32.495 : en:Chapter 11
00:42:34.343 : en:Chapter 12





реклама партнёра


Вернуться к началу
 Профиль  
 
   Похожие торренты   Автор   Торрент   Размер 
В этой теме нет новых непрочитанных сообщений. Космос: Пространство и время / Cosmos: A SpaceTime Odyssey [01x01] (Билл Поуп) [2014, документальный, HDTVRip 720p | FOX]

salma3

0 | 0

1.35 ГБ

В этой теме нет новых непрочитанных сообщений. Космос: Пространство и время / Cosmos: A SpaceTime Odyssey [01x01-04] (Билл Поуп) [2014, документальный, HDTVRip 720p | FOX]

salma3

0 | 0

4.79 ГБ

В этой теме нет новых непрочитанных сообщений. Космос: Пространство и время / Cosmos: A SpaceTime Odyssey [01x01-05] (Билл Поуп) [2014, документальный, HDTVRip 720p | FOX]

salma3

0 | 0

6.04 ГБ

В этой теме нет новых непрочитанных сообщений. Космос: Пространство и время / Cosmos: A Spacetime Odyssey / 1-13 серии из 13 [документальный, научно-познавательный, космос, 2014] HDRip, Avo

salma3

230 | 45

6.68 ГБ

В этой теме нет новых непрочитанных сообщений. Космос: Пространство и время / Cosmos: A SpaceTime Odyssey [01x01-12] (Билл Поуп) [2014, Документальный, научно-познавательный, природа, фауна, исследование, HDTVRip, WEBRip]

salma3

0 | 0

5.85 ГБ

В этой теме нет новых непрочитанных сообщений. Discovery. Космос наизнанку / Strip the Cosmos [02x01-02] [научно-познавательный, астрономия, космос, 2016] HDTVRip, Dvo

salma3

129 | 41

1.6 ГБ

В этой теме нет новых непрочитанных сообщений. Discovery. Космос наизнанку / Strip the Cosmos [02x01-02] [научно-познавательный, астрономия, космос, 2016[ HDTV 1080i, Dvo

salma3

69 | 41

6.87 ГБ


Начать новую тему Ответить на тему  [ 1 сообщение ] 




Для Мосгорсуда, Роскомнадзора и рекламодателей:: mosgorsud-torrent[собачка]yandex.ru