Торрент файл
скачать торрент магнет ссылка Добавлен: 01 дек 2013, 14:36
Размер: 842.23 МБ
Сидеров: 66
Личеров: 5
Автор

СообщениеДобавлено: 01 дек 2013, 14:36 

Не в сети
Супермодератор
Аватара пользователя
Дата регистрации:
15 фев 2012, 16:44
Возраст: 27
Спасибо: 5950 / 2115
Сообщения: 28427
Год выпуска: 2013
Жанр: документальный, научно-познавательный
Режиссер: Калле Макс Хофманн

Описание:
Звездное небо было объектом внимания людей с доисторических времен. И неудивительно, ведь именно в глубинах вселенной зародилась жизнь. В наши дни, благодаря современным технологиям, самые невероятные и удивительные секреты вселенной стали доступны для понимания. Космические корабли и роботизированные зонды исследуют, сканируют и фотографируют миллиарды отдаленных планет. С помощью уникальной передовой технологии "Наша вселенная 3D" даст вам возможность насладиться сногсшибательными видами и разгадать необыкновенные звездные феномены, не выходя из дома.[/color][/font]



Страна: США
Продолжительность: 00:51:32
Перевод:Профессиональный (полное дублирование]

Видео: 720x408 (1.76:1), 23.976 fps, XviD build 63 ~1500 kbps avg, 0.213 bit/pixel
Аудио#1: русский 48 kHz, AC3 Dolby Digital, 2/0 (L,R) ch, ~384 kbps [полное дублирование]
Аудио#2: [font=Georgia]английский 48 kHz, AC3 Dolby Digital, 2/0 (L,R) ch, ~384 kbps [оригинал]


Формат : AVI
Формат/Информация : Audio Video Interleave
Размер файла : 842 Мбайт
Продолжительность : 51 м.
Общий поток : 2284 Кбит/сек
Название фильма : G71_68556.Title1.Bluray3DRip
Программа кодирования : XviD4PSP 6.0 / 53.1.0

Видео
Идентификатор : 0
Формат : MPEG-4 Visual
Профиль формата : Advanced Simple@L5
Параметр BVOP формата : 1
Параметр QPel формата : Нет
Параметр GMC формата : Без точки перехода
Параметр матрицы формата : Default (H.263)
Идентификатор кодека : XVID
Идентификатор кодека/Подсказка : XviD
Продолжительность : 51 м.
Битрейт : 1500 Кбит/сек
Ширина : 720 пикселей
Высота : 408 пикселей
Соотношение сторон : 16:9
Частота кадров : 23,976 кадра/сек
Цветовое пространство : YUV
Субдискретизация насыщенности : 4:2:0
Битовая глубина : 8 бит
Тип развёртки : Прогрессивная
Метод сжатия : С потерями
Бит/(Пиксели*Кадры) : 0.213
Размер потока : 553 Мбайт (66%)
Библиотека кодирования : XviD 63

Аудио #1
Идентификатор : 1
Формат : AC-3
Формат/Информация : Audio Coding 3
Расширение режима : CM (complete main)
Параметр Endianness формата : Big
Идентификатор кодека : 2000
Продолжительность : 51 м.
Вид битрейта : Постоянный
Битрейт : 384 Кбит/сек
Каналы : 2 канала
Расположение каналов : Front: L R
Частота : 48,0 КГц
Битовая глубина : 16 бит
Метод сжатия : С потерями
Размер потока : 142 Мбайт (17%)
Выравнивание : Соединение по промежуткам
Продолжительность промежутка : 32 мс. (0,77 видеокадр)

Аудио #2
Идентификатор : 2
Формат : AC-3
Формат/Информация : Audio Coding 3
Расширение режима : CM (complete main)
Параметр Endianness формата : Big
Идентификатор кодека : 2000
Продолжительность : 51 м.
Вид битрейта : Постоянный
Битрейт : 384 Кбит/сек
Каналы : 2 канала
Расположение каналов : Front: L R
Частота : 48,0 КГц
Битовая глубина : 16 бит
Метод сжатия : С потерями
Размер потока : 142 Мбайт (17%)
Выравнивание : Соединение по промежуткам
Продолжительность промежутка : 32 мс. (0,77 видеокадр)









Релиз группы: Автор рипа: privet1979


_________________
Проголосуй за трекер Открытый торрент трекер - RUS-MEDIA.ORG




реклама партнёра


Вернуться к началу
 Профиль Отправить личное сообщение  
 
   Похожие торренты   Автор   Торрент   Размер 
В этой теме нет новых непрочитанных сообщений. Наша Вселенная 3D / Our Universe 3D (Манфред Леманн, Глен МакКреди) [2013, Документальный, HDRip | D]

salma3

0 | 0

835.18 МБ

В этой теме нет новых непрочитанных сообщений. BBC. Horizon - Каковы размеры Вселенной? / BBC. Horizon - How Big is the Universe? (Кенни Скотт) [2012, документальный, научно-познавательный, LowHDTVRip] AVO

salma3

0 | 1

420.29 МБ

В этой теме нет новых непрочитанных сообщений. Производство пива [RTG HD] [2013, Документальный, научно-познавательный, HDTVRip]

Nickolas3435

78 | 2

391.73 МБ

В этой теме нет новых непрочитанных сообщений. Спасение собак / The Dog Rescuers [S01] (Пауль Гудлайфф) [2013, Документальный, научно-познавательный, кинология, SATRip] dvo

salma3

0 | 0

2.56 ГБ

В этой теме нет новых непрочитанных сообщений. Как устроена Вселенная (Сезон 2: 8 серий из 8 ) / How the Universe Works (Адам Уорнер) [2012, документальный, LowHDTVRip] VO

salma3

0 | 1

4.97 ГБ

В этой теме нет новых непрочитанных сообщений. Вселенная Стивена / Steven Universe / 1 сезон: 1-13 серии из 13 [мультфильм, фэнтези, боевик, 2013-2014] SATRip, Dub

salma3

59 | 22

2.46 ГБ

В этой теме нет новых непрочитанных сообщений. Вызов бездне 3D  / Deepsea Challenge 3D (Джон Бруно, Рэй Квинт, Эндрю Уайт) [документальный, научно-познавательный, океанография, 2014] HDRip, mvo [Чистый звук]

Dracon

3 | 3

1.37 ГБ


Начать новую тему Ответить на тему  [ 1 сообщение ] 




Для Мосгорсуда, Роскомнадзора и рекламодателей:: mosgorsud-torrent[собачка]yandex.ru