Торрент файл
скачать торрент магнет ссылка Добавлен: 21 мар 2015, 09:45
Размер: 2.16 ГБ
Сидеров: 21
Личеров: 6
Автор

СообщениеДобавлено: 21 мар 2015, 09:45 

Не в сети
Супермодератор
Аватара пользователя
Дата регистрации:
06 июн 2014, 07:51
Спасибо: 612 / 0
Сообщения: 2002

Название: Романтические города: Карнавал в Венеции
Оригинальное название: Romantic City: Carnival in Venice
Год выхода: 2010
Жанр: Документальный, демо, релакс, видовой, путешествие, туризм, города
Режиссер: Жан Люк Беррау

О фильме: Тысячи туристов приезжают в Венецию, чтобы увидеть карнавал и принять в нем участие. Гулять в маскарадном костюме по волшебным улицам города уже означает, что вы принимаете участие в этом действительно выдающемся событии. Таинственные, будоражащие венецианские маски, смотрят на вас из переулков и являются частью нашего представления о Венеции 300 лет назад. Они притягивают нас тем, что, несомненно, помогают воссоздать жизнь в Венеции в 18 веке. Можно смело сказать, что венецианский карнавал является одним из наиболее уникальных событий в мире.

Страна: Великобритания, Германия
Продолжительность: 00:54:16
Перевод: Не требуется

Кодек: MPEG-4 AVC
Качество: BDRip 720p
Видео: 1280x720, 4359 Кбит/с, 25.000 fps
Звук: Музыка (AC3, 6 ch, 448 Кбит/с)

Семпл

General
Unique ID : 195652793631100014730994732722685904686 (0x93315B7E491C6C05B895A17C920E872E)
Complete name : I:Romantic.City.Carnival.in.Venice.2010.x264.BDRip.(720p).mkv
Format : Matroska
Format version : Version 4 / Version 2
File size : 2.16 GiB
Duration : 54mn 16s
Overall bit rate : 5 704 Kbps
Movie name : Romantic City: Carnival in Venice / 2010 / Rip by PowerRock / ExKinoRay
Encoded date : UTC 2015-03-17 07:11:57
Writing application : mkvmerge v7.7.0 ('Six Voices') 64bit built on Feb 28 2015 23:39:33
Writing library : libebml v1.3.1 + libmatroska v1.4.2
Attachements : cover.jpg
DURATION : 00:54:15.808000000
NUMBER_OF_FRAMES : 101744
NUMBER_OF_BYTES : 182325248
_STATISTICS_WRITING_APP : mkvmerge v7.7.0 ('Six Voices') 64bit built on Feb 28 2015 23:39:33
_STATISTICS_WRITING_DATE_UTC : 2015-03-17 07:11:57
_STATISTICS_TAGS : BPS DURATION NUMBER_OF_FRAMES NUMBER_OF_BYTES

Video
ID : 1
Format : AVC
Format/Info : Advanced Video Codec
Format profile : High@L4.1
Format settings, CABAC : Yes
Format settings, ReFrames : 9 frames
Codec ID : V_MPEG4/ISO/AVC
Duration : 54mn 16s
Bit rate : 4 359 Kbps
Width : 1 280 pixels
Height : 720 pixels
Display aspect ratio : 16:9
Frame rate mode : Constant
Frame rate : 25.000 fps
Color space : YUV
Chroma subsampling : 4:2:0
Bit depth : 8 bits
Scan type : Progressive
Bits/(Pixel*Frame) : 0.189
Stream size : 1.61 GiB (74%)
Title : Romantic City: Carnival in Venice / 2010
Writing library : x264 core 130 r2273 b3065e6
Encoding settings : cabac=1 / ref=9 / deblock=1:-2:-2 / analyse=0x3:0x133 / me=umh / subme=10 / psy=1 / psy_rd=1.00:0.10 / mixed_ref=1 / me_range=32 / chroma_me=1 / trellis=2 / 8x8dct=1 / cqm=0 / deadzone=21,11 / fast_pskip=0 / chroma_qp_offset=-3 / threads=6 / lookahead_threads=1 / sliced_threads=0 / nr=0 / decimate=1 / interlaced=0 / bluray_compat=0 / constrained_intra=0 / bframes=8 / b_pyramid=2 / b_adapt=2 / b_bias=0 / direct=3 / weightb=1 / open_gop=0 / weightp=2 / keyint=250 / keyint_min=23 / scenecut=40 / intra_refresh=0 / rc_lookahead=50 / rc=2pass / mbtree=1 / bitrate=4359 / ratetol=1.0 / qcomp=0.60 / qpmin=10 / qpmax=51 / qpstep=4 / cplxblur=20.0 / qblur=0.5 / ip_ratio=1.40 / aq=1:1.00
Default : Yes
Forced : No
DURATION : 00:54:16.920000000
NUMBER_OF_FRAMES : 81423
NUMBER_OF_BYTES : 1773860772
_STATISTICS_WRITING_APP : mkvmerge v7.7.0 ('Six Voices') 64bit built on Feb 28 2015 23:39:33
_STATISTICS_WRITING_DATE_UTC : 2015-03-17 07:11:57
_STATISTICS_TAGS : BPS DURATION NUMBER_OF_FRAMES NUMBER_OF_BYTES

Audio #1
ID : 2
Format : AC-3
Format/Info : Audio Coding 3
Mode extension : CM (complete main)
Format settings, Endianness : Big
Codec ID : A_AC3
Duration : 54mn 16s
Bit rate mode : Constant
Bit rate : 448 Kbps
Channel(s) : 6 channels
Channel positions : Front: L C R, Side: L R, LFE
Sampling rate : 48.0 KHz
Bit depth : 16 bits
Compression mode : Lossy
Stream size : 174 MiB (8%)
Title : Music
Default : Yes
Forced : No

Audio #2
ID : 3
Format : AC-3
Format/Info : Audio Coding 3
Mode extension : CM (complete main)
Format settings, Endianness : Big
Codec ID : A_AC3
Duration : 54mn 16s
Bit rate mode : Constant
Bit rate : 448 Kbps
Channel(s) : 6 channels
Channel positions : Front: L C R, Side: L R, LFE
Sampling rate : 48.0 KHz
Bit depth : 16 bits
Compression mode : Lossy
Stream size : 174 MiB (8%)
Title : Music
Default : No
Forced : No

Audio #3
ID : 4
Format : AC-3
Format/Info : Audio Coding 3
Mode extension : CM (complete main)
Format settings, Endianness : Big
Codec ID : A_AC3
Duration : 54mn 16s
Bit rate mode : Constant
Bit rate : 448 Kbps
Channel(s) : 6 channels
Channel positions : Front: L C R, Side: L R, LFE
Sampling rate : 48.0 KHz
Bit depth : 16 bits
Compression mode : Lossy
Stream size : 174 MiB (8%)
Title : Music
Default : No
Forced : No

Menu
00:00:00.000 : :Chapter 01
00:02:30.000 : :Chapter 02
00:05:53.279 : :Chapter 03
00:07:30.000 : :Chapter 04
00:11:01.000 : :Chapter 05
00:12:30.000 : :Chapter 06
00:17:13.000 : :Chapter 07
00:18:39.560 : :Chapter 08
00:20:12.840 : :Chapter 09
00:22:30.000 : :Chapter 10
00:24:36.080 : :Chapter 11
00:27:30.000 : :Chapter 12
00:28:33.440 : :Chapter 13
00:31:15.320 : :Chapter 14
00:33:03.520 : :Chapter 15
00:35:07.000 : :Chapter 16
00:37:11.000 : :Chapter 17
00:39:50.680 : :Chapter 18
00:42:53.080 : :Chapter 19
00:44:21.400 : :Chapter 20
00:46:04.080 : :Chapter 21
00:52:04.840 : :Chapter 22




реклама партнёра


Вернуться к началу
 Профиль Отправить личное сообщение  
 
   Похожие торренты   Автор   Торрент   Размер 
В этой теме нет новых непрочитанных сообщений. Иерусалим - история Святого города / The Making of a Holy City [3 серии из 3] [документальный, 2014] SATRip, Avo

salma3

89 | 4

2.1 ГБ

В этой теме нет новых непрочитанных сообщений. Алекс из Венеции / Alex of Venice [драма, 2014] BDRip, Mvo

salma3

65 | 13

1.47 ГБ

В этой теме нет новых непрочитанных сообщений. Океан мечты: Наслаждение красотой моря / Ocean Dreams: Enjoy the Powerful Beauty of the Sea (Сэм Уивер) [2013, Документальный, видовой, музыка, релакс, BDRip 720p]

Nickolas3435

168 | 13

3.6 ГБ

В этой теме нет новых непрочитанных сообщений. Animal Planet: Неизведанные города. Манаус / Animal Planet: Worlds wildes city. Manaus (7 серий из 7) [документальный, 2014] SATRip, Avo

salma3

3 | 7

3.53 ГБ

В этой теме нет новых непрочитанных сообщений. Огни большого города / City Lights [триллер, драма, 2014] DVDRip, Dvo+Sub

salma3

14 | 7

1.46 ГБ

В этой теме нет новых непрочитанных сообщений. Псы большого города / Big City Blues [Боевик, драма, комедия, приключения, 1997] DVDRip, Avo

salma3

7 | 1

744.69 МБ

В этой теме нет новых непрочитанных сообщений. Алекс из Венеции / Alex of Venice [драма, 2014] HDRip, Mvo

salma3

13 | 57

1.47 ГБ


Начать новую тему Ответить на тему  [ 1 сообщение ] 




Для Мосгорсуда, Роскомнадзора и рекламодателей:: mosgorsud-torrent[собачка]yandex.ru