Торрент файл
скачать торрент магнет ссылка Добавлен: 04 мар 2015, 22:55
Размер: 232.89 МБ
Сидеров: 22
Личеров: 8
Автор

СообщениеДобавлено: 04 мар 2015, 22:55 

Не в сети
Дата регистрации:
27 апр 2014, 21:05
Спасибо: 11 / 0
Сообщения: 65
Забавные повадки девушек ("Последний из Могикан")

Перевод: Не требуется, cубтитры: отсутствуют
Формат: WEBRip, AVI, DivX, MP3
Страна: Россия
Режиссер: Алексей Меняйлов
Жанр: мелодрама, детектив, приключения
Продолжительность: 00:19:12
Год выпуска: 2013

Описание: Возможно это первый опыт изучения забавных повадок девушек с использованием метода дедукции. Результат получился, что и говорить, неожиданный. Зачем, вы думаете, она роняет платочек?

Видео: 720x406 (1.77:1), 29.970 fps, DivX Codec 4.x ~1492 kbps avg, 0.17 bit/pixel
Аудио: 48 kHz, MPEG Layer 3, 2 ch, ~192.00 kbps avg

Доп. информация: Партизанская правда партизан


General
Формат : AVI
Формат/Информация : Audio Video Interleave
Размер файла : 233 MiB
Продолжительность : 19mn 12s
Общий поток : 1 696 Kbps

Video
Идентификатор : 0
Формат : MPEG-4 Visual
Параметр BVOP формата : 1
Параметр QPel формата : No
Параметр GMC формата : No warppoints
Параметр матрицы формата : Default (H.263)
Режим смешивания : Packed bitstream
Идентификатор кодека : DX50
Идентификатор кодека/Подсказка : DivX 5
Продолжительность : 19mn 12s
Битрейт : 1 492 Kbps
Ширина : 720 pixels
Высота : 406 pixels
Соотношение сторон : 16:9
Частота кадров : 29.970 fps
Цветовое пространство : YUV
Субдискретизация насыщенности : 4:2:0
Битовая глубина : 8 bits
Тип развёртки : Progressive
Метод сжатия : Lossy
Бит/(Пиксели*Кадры) : 0.170
Размер потока : 205 MiB (88%)
Заголовок : Video
Библиотека кодирования : DivX 2682

Audio
Идентификатор : 1
Формат : MPEG Audio
Версия формата : Version 1
Профиль формата : Layer 3
Режим : Joint stereo
Расширение режима : MS Stereo
Идентификатор кодека : 55
Идентификатор кодека/Подсказка : MP3
Продолжительность : 19mn 12s
Вид битрейта : Constant
Битрейт : 192 Kbps
Каналы : 2 channels
Частота : 48.0 KHz
Метод сжатия : Lossy
Размер потока : 26.4 MiB (11%)
Выравнивание : Split accross interleaves
Продолжительность промежутка : 33 ms (1.00 video frame)
Время предзагрузки промежутка : 500 ms
Заголовок : Audio - en-US01










реклама партнёра


Вернуться к началу
 Профиль Отправить личное сообщение  
 
   Похожие торренты   Автор   Торрент   Размер 
В этой теме нет новых непрочитанных сообщений. Любовные повадки женщин (Алексей Меняйлов) [2013, мелодрама, детектив, приключения, WEBRip]

vairgin

47 | 8

232.9 МБ

В этой теме нет новых непрочитанных сообщений. Шамано-жреческий аспект "Дома летающих кинжалов" (Алексей Меняйлов) [2015, Боевик, фэнтези, мелодрама, драма, приключения, WEBRip]

vairgin

7 | 4

284.07 МБ

В этой теме нет новых непрочитанных сообщений. Второй признак суженой (Алексей Меняйлов) [2015, самиздат, психология, приключения, WEBRip]

vairgin

26 | 2

185.32 МБ

В этой теме нет новых непрочитанных сообщений. Секрет успеха от древних самураев (Алексей Меняйлов) [2015, самиздат, психология, приключения, WEBRip]

vairgin

21 | 2

582.44 МБ

В этой теме нет новых непрочитанных сообщений. Почему немцы не переименовали Сталино в Донецк? (Алексей Меняйлов) [2013, Война, история, самиздат, WEBRip]

vairgin

51 | 15

45.58 МБ

В этой теме нет новых непрочитанных сообщений. Созвездие Змееносец - ученик великого сыщика Пуаро (Алексей Меняйлов) [2014, комедия, криминал, детектив, WEBRip]

vairgin

11 | 3

266.1 МБ

В этой теме нет новых непрочитанных сообщений. Последний из могикан / The Last of the Mohicans [боевик, драма, мелодрама, приключения, военный, 1992] Blu-ray 1080p, Dub

salma3

39 | 43

43.7 ГБ


Начать новую тему Ответить на тему  [ 1 сообщение ] 




Для Мосгорсуда, Роскомнадзора и рекламодателей:: mosgorsud-torrent[собачка]yandex.ru