Торрент файл
скачать торрент магнет ссылка Добавлен: 12 мар 2012, 23:36
Размер: 2.1 ГБ
Сидеров: 62
Личеров: 12
Автор

СообщениеДобавлено: 12 мар 2012, 23:36 

Не в сети
Супермодератор
Аватара пользователя
Дата регистрации:
22 май 2010, 11:03
Возраст: 32
Спасибо: 7646 / 13
Сообщения: 49894
Освежающий океан.Ритмы воды / Ocean Freshness / Water Rythms



Перевод: Не требуется, cубтитры: отсутствуют
Формат: HDTVRip-AVC, MKV, H.264, AC3
Страна: Франция,Великобритания

Жанр: документальный, релакс
Продолжительность: 02:56:33
Год выпуска: 2007-2011

Описание: Прекрасные виды в сопровождении прекрасных музыкальных произведений. Этот фильм – верный помощник в борьбе со стрессом и усталостью!

Видео: 896 x 480 (1.87:1), 25.000 fps, AVC (х264) , ~ 1512 Kbps, 0.141 bit/pixel
Аудио: 48 kHz, AC3 Dolby Digital, 2/0 (L,R) ch, ~192 kbps


Рип: jeenart

General
Unique ID: 227485524693344895880670873932021116604 (0xAB241E4EF2C3EF2080DF016B80502EBC)
Complete name: F:\Мои релизы\Все релизы 10\ocean_freshness_water_rythms_[tfile.ru].mkv
Format: Matroska
File size: 2.10 GiB
Duration: 2h 56mn
Overall bit rate: 1 706 Kbps
Encoded date: UTC 2011-12-11 13:23:12
Writing application: mkvmerge v4.6.0 ('Still Crazy After All These Years') сборка от Apr1 2011 21:01:49
Writing library: libebml v1.2.0 + libmatroska v1.1.0

Video
ID: 1
Format: AVC
Format/Info: Advanced Video Codec
Format profile:
Format settings, CABAC: Yes
Format settings, ReFrames: 4 frames
Codec ID: V_MPEG4/ISO/AVC
Duration: 2h 56mn
Bit rate: 1 512 Kbps
Width: 896 pixels
Height: 480 pixels
Display aspect ratio: 1.867
Frame rate: 25.000 fps
Color space: YUV
Chroma subsampling: 4:2:0
Bit depth: 8 bits
Scan type: Progressive
Bits/(Pixel*Frame): 0.141
Stream size: 1.82 GiB (87%)
Writing library: x264 core 115 r1937 aa21558
Encoding settings: cabac=1 / ref=3 / deblock=1:-1:-1 / analyse=0x3:0x113 / me=hex / subme=7 / psy=1 / psy_rd=1.00:0.10 / mixed_ref=1 / me_range=16 / chroma_me=1 / trellis=1 / 8x8dct=1 / cqm=0 / deadzone=21,11 / fast_pskip=1 / chroma_qp_offset=-3 / threads=6 / sliced_threads=0 / nr=0 / decimate=1 / interlaced=0 / bluray_compat=0 / constrained_intra=0 / bframes=3 / b_pyramid=2 / b_adapt=1 / b_bias=0 / direct=3 / weightb=1 / open_gop=0 / weightp=2 / keyint=250 / keyint_min=25 / scenecut=40 / intra_refresh=0 / rc_lookahead=40 / rc=2pass / mbtree=1 / bitrate=1512 / ratetol=1.0 / qcomp=0.60 / qpmin=0 / qpmax=69 / qpstep=4 / cplxblur=20.0 / qblur=0.5 / ip_ratio=1.40 / aq=1:1.00

Audio
ID: 2
Format: AC-3
Format/Info: Audio Coding 3
Mode extension: CM (complete main)
Codec ID: A_AC3
Duration: 2h 56mn
Bit rate mode: Constant
Bit rate: 192 Kbps
Channel(s): 2 channels
Channel positions: Front: L R
Sampling rate: 48.0 KHz
Bit depth: 16 bits
Compression mode: Lossy
Stream size: 242 MiB (11%)
























Поделиться:




реклама партнёра


Вернуться к началу
 Профиль Отправить личное сообщение  
 
   Похожие торренты   Автор   Торрент   Размер 
В этой теме нет новых непрочитанных сообщений. Океан мечты: Наслаждение красотой моря / Ocean Dreams: Enjoy the Powerful Beauty of the Sea (Сэм Уивер) [2013, Документальный, видовой, музыка, релакс, BDRip 720p]

Nickolas3435

168 | 13

3.6 ГБ

В этой теме нет новых непрочитанных сообщений. Просто добавь воды / Just Add Water [Мелодрама, комедия, 2007] BDRip 720p, Mvo

salma3

0 | 0

4.37 ГБ

В этой теме нет новых непрочитанных сообщений. Романтические города: Карнавал в Венеции / Romantic City: Carnival in Venice (Жан Люк Беррау) [2010, Документальный, демо, релакс, видовой, путешествие, туризм, города, BDRip 720p]

Nickolas3435

21 | 6

2.16 ГБ

В этой теме нет новых непрочитанных сообщений. Воды слонам! / Water for Elephants [драма, мелодрама, 2011] BDRip 1080p, Dub

salma3

32 | 15

4.37 ГБ

В этой теме нет новых непрочитанных сообщений. Лунный свет 3: Дни вечности / Lichtmond 3: Days of Eternity [музыка, релакс, 2014] BDRip 1080p [3D-Video]

Dracon

124 | 18

7.66 ГБ

В этой теме нет новых непрочитанных сообщений. Сан Басе: География вселенной / San Base: Geography of the Universe [музыка, релакс, 2014] BDRip 1080p [3D-Video]

Dracon

35 | 10

17.84 ГБ

В этой теме нет новых непрочитанных сообщений. Боязнь воды / Fear of Water [драма, мелодрама, 2015] WEBDLRip, Mvo

salma3

117 | 40

1.37 ГБ


Начать новую тему Ответить на тему  [ 1 сообщение ] 




Для Мосгорсуда, Роскомнадзора и рекламодателей:: mosgorsud-torrent[собачка]yandex.ru