Торрент файл
скачать торрент магнет ссылка Добавлен: 12 мар 2012, 23:36
Размер: 1.14 ГБ
Сидеров: 46
Личеров: 10
Автор

СообщениеДобавлено: 12 мар 2012, 23:36 

Не в сети
Супермодератор
Аватара пользователя
Дата регистрации:
22 май 2010, 11:03
Возраст: 31
Спасибо: 7553 / 13
Сообщения: 49939
Лунный свет / Lichtmond


Перевод: Отсутствует [Музыкальное сопровождение], cубтитры: отсутствуют
Закадровый текст: Томас Киллингер [немецкий]
Формат: HDRip, MKV, H.264, AC3
Страна: Германия
Режиссер: Диего Бонати, Джорджио Коппехели, Мартин Коппехели
Жанр: релакс
Продолжительность: 00:47:16
Год выпуска: 2010
Описание: Потрясающее путешествие в фэнтези, в лучах лунного света через волшебные звуки. Погрузитесь в неординарную музыку и пусть ваши FullHD экраны превратятся на один час в двери сказочных миров, которые до этого Вам не приходилось видеть, но наверняка вы мечтали о них. Это удивительное издание, с уникальным звуковым рядом, как по качеству так и по наполнению невиданной красоты видеорядом футуристических 3D миров. Ни в коем случае не пропустите этот диск, пусть он наполнит Ваш дом, яркими красками и высококачественным звучанием произведений Giorgio и Martin Koppehele.



Видео: 1024х576 (16:9), 29,970 fps, AVC (х264), , ~3000 Kbps avg, 0.170 bit/pixel
Аудио: 48.0 KHz, AC3 Dolby Digital, 6 channels (Front: L C R, Side: L R, LFE), ~448.00 kbps avg [Оригинальный]
Общее
Уникальный идентификатор: 210124519809198083558646246119156104367 (0x9E1482AE7E3744C3ADC02A4D599E3CAF)
Полное имя: D:\Video\Torrent\...\lunnyi_svet_litl_[tfile.ru].mkv
Формат: Matroska
Версия формата: Version 2
Размер файла: 1,14 Гбайт
Продолжительность: 47 м.
Общий поток: 3449 Кбит/сек
Название фильма: Лунный свет
Дата кодирования: UTC 2011-08-17 10:55:08
Программа кодирования: mkvmerge v4.0.0 ('The Stars were mine') сборка от Jun6 2010 16:18:42
Библиотека кодирования: libebml v1.0.0 + libmatroska v1.0.0

Видео
Идентификатор: 1
Формат: AVC
Формат/Информация: Advanced Video Codec
Профиль формата:
Параметр CABAC формата: Да
Параметр ReFrames формата: 8 кадров
Идентификатор кодека: V_MPEG4/ISO/AVC
Продолжительность: 47 м.
Битрейт: 3000 Кбит/сек
Ширина: 1024 пикселя
Высота: 576 пикселей
Соотношение сторон: 16:9
Частота кадров: 29,970 кадров/сек
Цветовое пространство: YUV
Субдискретизация насыщенности: 4:2:0
Битовая глубина: 8 бит
Тип развёртки: Прогрессивная
Бит/(Пиксели*Кадры): 0.170
Размер потока: 992 Мбайт (85%)
Библиотека кодирования: x264 core 114 r1924 08d04a4
Настройки программы: cabac=1 / ref=8 / deblock=1:-2:-2 / analyse=0x3:0x133 / me=umh / subme=10 / psy=1 /

psy_rd=1.00:0.00 / mixed_ref=1 / me_range=48 / chroma_me=1 / trellis=2 / 8x8dct=1 / cqm=0 / deadzone=21,11 / fast_pskip=0 /

chroma_qp_offset=-2 / threads=3 / sliced_threads=0 / nr=0 / decimate=1 / interlaced=0 / constrained_intra=0 / bframes=8 /

b_pyramid=2 / b_adapt=2 / b_bias=0 / direct=3 / weightb=1 / open_gop=0 / weightp=2 / keyint=250 / keyint_min=23 / scenecut=40

/ intra_refresh=0 / rc=2pass / mbtree=0 / bitrate=3000 / ratetol=1.0 / qcomp=0.60 / qpmin=10 / qpmax=51 / qpstep=4 /

cplxblur=20.0 / qblur=0.5 / ip_ratio=1.40 / pb_ratio=1.30 / aq=2:1.00
Язык: English

Аудио
Идентификатор: 2
Формат: AC-3
Формат/Информация: Audio Coding 3
Расширение режима: CM (complete main)
Идентификатор кодека: A_AC3
Продолжительность: 47 м.
Вид битрейта: Постоянный
Битрейт: 448 Кбит/сек
Каналы: 6 каналов
Расположение каналов: Front: L C R, Side: L R, LFE
Частота: 48,0 КГц
Битовая глубина: 16 бит
Метод сжатия: С потерями
Размер потока: 151 Мбайт (13%)
Язык: English














Поделиться:




реклама партнёра


Вернуться к началу
 Профиль Отправить личное сообщение  
 
   Похожие торренты   Автор   Торрент   Размер 
В этой теме нет новых непрочитанных сообщений. Лунный свет 3: Дни вечности / Lichtmond 3: Days of Eternity [музыка, релакс, 2014] BDRip 1080p [3D-Video]

Dracon

124 | 18

7.66 ГБ

В этой теме нет новых непрочитанных сообщений. Лунный свет / Moonlight [драма, 2016] DVDScreener, Mvo

salma3

169 | 12

1.46 ГБ

В этой теме нет новых непрочитанных сообщений. Шоссе «Лунный свет» / Moonshine Highway [боевик, триллер, драма, 1996] DVDRip, Avo

salma3

106 | 13

937.32 МБ

В этой теме нет новых непрочитанных сообщений. Романтические города: Карнавал в Венеции / Romantic City: Carnival in Venice (Жан Люк Беррау) [2010, Документальный, демо, релакс, видовой, путешествие, туризм, города, BDRip 720p]

Nickolas3435

21 | 6

2.16 ГБ

В этой теме нет новых непрочитанных сообщений. Сан Басе: География вселенной / San Base: Geography of the Universe [музыка, релакс, 2014] BDRip 1080p [3D-Video]

Dracon

35 | 9

17.84 ГБ

В этой теме нет новых непрочитанных сообщений. Океан мечты: Наслаждение красотой моря / Ocean Dreams: Enjoy the Powerful Beauty of the Sea (Сэм Уивер) [2013, Документальный, видовой, музыка, релакс, BDRip 720p]

Nickolas3435

168 | 13

3.6 ГБ

В этой теме нет новых непрочитанных сообщений. Сесар Чавес / Cesar Chavez (Диего Луна) [биография, 2014] HDRip, Mvo

Dracon

33 | 1

1.37 ГБ


Начать новую тему Ответить на тему  [ 1 сообщение ] 




Для Мосгорсуда, Роскомнадзора и рекламодателей:: mosgorsud-torrent[собачка]yandex.ru