Торрент файл
скачать торрент магнет ссылка Добавлен: 12 мар 2012, 23:35
Размер: 2.19 ГБ
Сидеров: 46
Личеров: 13
Автор

СообщениеДобавлено: 12 мар 2012, 23:35 

Не в сети
Супермодератор
Аватара пользователя
Дата регистрации:
22 май 2010, 11:03
Возраст: 32
Спасибо: 7670 / 13
Сообщения: 49894
Гавайи: Симфония островов / Hawaii: An Island Symphony


Перевод: Отсутствует [музыкальное сопровождение], cубтитры: отсутствуют
Формат: BDRip-AVC, MKV, H.264, AC3
Страна: США
Режиссер: Роберт Глусик / Robert Glusic
Жанр: релакс
Продолжительность: 01:00:11
Год выпуска: 2010

Описание:
Погрузитесь в тайны трех самых красивых островов Гавайев: Мауи, Кауаи и Большого Острова с реальным звуком и прекрасной музыкой...
А так же почувствуйте красоту вулканов и прелесть видов воздушной съемки!
Незабываемое зрелище!


Видео: 1280х720 (1.77:1), 29,970 fps, AVC (х264), , ~4302 Kbps avg, 0.156 bit/pixel
Аудио #1:[английский] 48.0 KHz, AC3 Dolby Digital, 6 channels (Front: L C R, Side: L R, LFE), ~448.00 kbps avg [оригинальный]
Аудио #2:[музыкальное сопровождение] 48.0 KHz, AC3 Dolby Digital, 6 channels (Front: L C R, Side: L R, LFE), ~448.00 kbps avg
Общее
Уникальный идентификатор: 217262444815180891050920007102262973079 (0xA373398E32EDB377919200691DA09297)
Полное имя: D:\Video\...\gavai_simfoniya_ostrovov_[tfile.ru].mkv
Формат: Matroska
Версия формата: Version 2
Размер файла: 2,19 Гбайт
Продолжительность: 1 ч. 0 м.
Общий поток: 5201 Кбит/сек
Дата кодирования: UTC 2011-02-24 19:16:48
Программа кодирования: mkvmerge v4.4.0 ('Die Wiederkehr') built on Oct 31 2010 21:52:48
Библиотека кодирования: libebml v1.0.0 + libmatroska v1.0.0

Видео
Идентификатор: 1
Формат: AVC
Формат/Информация: Advanced Video Codec
Профиль формата:
Параметр CABAC формата: Да
Параметр ReFrames формата: 12 кадров
Идентификатор кодека: V_MPEG4/ISO/AVC
Продолжительность: 1 ч. 0 м.
Битрейт: 4302 Кбит/сек
Ширина: 1280 пикселей
Высота: 720 пикселей
Соотношение сторон: 16:9
Частота кадров: 29,970 кадров/сек
Цветовое пространство: YUV
Субдискретизация насыщенности: 4:2:0
Битовая глубина: 8 бит
Тип развёртки: Прогрессивная
Бит/(Пиксели*Кадры): 0.156
Размер потока: 1,77 Гбайт (81%)
Заголовок: Freeisland
Библиотека кодирования: x264 core 114 r1913 5fd3dce
Настройки программы: cabac=1 / ref=12 / deblock=1:-2:-2 / analyse=0x3:0x113 / me=umh / subme=7 / psy=1 / psy_rd=1.00:0.15 /

mixed_ref=1 / me_range=32 / chroma_me=1 / trellis=1 / 8x8dct=1 / cqm=0 / deadzone=21,11 / fast_pskip=1 / chroma_qp_offset=-3 / threads=6 /

sliced_threads=0 / nr=0 / decimate=1 / interlaced=0 / constrained_intra=0 / bframes=6 / b_pyramid=2 / b_adapt=2 / b_bias=0 / direct=3 / weightb=1

/ open_gop=0 / weightp=2 / keyint=250 / keyint_min=25 / scenecut=40 / intra_refresh=0 / rc_lookahead=50 / rc=2pass / mbtree=1 / bitrate=4302 /

ratetol=1.0 / qcomp=0.60 / qpmin=0 / qpmax=69 / qpstep=4 / cplxblur=20.0 / qblur=0.5 / ip_ratio=1.40 / aq=1:1.00
Язык: English
Default: Да
Forced: Нет

Аудио #1
Идентификатор: 2
Формат: AC-3
Формат/Информация: Audio Coding 3
Расширение режима: CM (complete main)
Идентификатор кодека: A_AC3
Продолжительность: 1 ч. 0 м.
Вид битрейта: Постоянный
Битрейт: 448 Кбит/сек
Каналы: 6 каналов
Расположение каналов: Front: L C R, Side: L R, LFE
Частота: 48,0 КГц
Битовая глубина: 16 бит
Метод сжатия: С потерями
Размер потока: 193 Мбайт (9%)
Язык: English
Default: Да
Forced: Нет

Аудио #2
Идентификатор: 3
Формат: AC-3
Формат/Информация: Audio Coding 3
Расширение режима: CM (complete main)
Идентификатор кодека: A_AC3
Продолжительность: 1 ч. 0 м.
Вид битрейта: Постоянный
Битрейт: 448 Кбит/сек
Каналы: 6 каналов
Расположение каналов: Front: L C R, Side: L R, LFE
Частота: 48,0 КГц
Битовая глубина: 16 бит
Метод сжатия: С потерями
Размер потока: 193 Мбайт (9%)
Язык: English
Default: Нет
Forced: Нет

Меню
00:00:00.000: en:00:00:00.000
00:09:55.595: en:00:09:55.595
00:18:00.980: en:00:18:00.980
00:28:50.262: en:00:28:50.262
00:40:01.933: en:00:40:01.933
00:50:42.573: en:00:50:42.573









Поделиться:




реклама партнёра


Вернуться к началу
 Профиль Отправить личное сообщение  
 
   Похожие торренты   Автор   Торрент   Размер 
В этой теме нет новых непрочитанных сообщений. Романтические города: Карнавал в Венеции / Romantic City: Carnival in Venice (Жан Люк Беррау) [2010, Документальный, демо, релакс, видовой, путешествие, туризм, города, BDRip 720p]

Nickolas3435

21 | 6

2.16 ГБ

В этой теме нет новых непрочитанных сообщений. Гавайи / Hawaii [Драма, приключения, 1966] HDTV 1080i, Mvo

salma3

2 | 1

6.76 ГБ

В этой теме нет новых непрочитанных сообщений. Сан Басе: География вселенной / San Base: Geography of the Universe [музыка, релакс, 2014] BDRip 1080p [3D-Video]

Dracon

35 | 17

17.84 ГБ

В этой теме нет новых непрочитанных сообщений. Лунный свет 3: Дни вечности / Lichtmond 3: Days of Eternity [музыка, релакс, 2014] BDRip 1080p [3D-Video]

Dracon

124 | 18

7.66 ГБ

В этой теме нет новых непрочитанных сообщений. Гавайи 5.0 / Hawaii Five-0 [S06] [боевик, драма, криминал, 2015-2016] HDTVRip 720p, Mvo [LostFilm]

salma3

4 | 5

39.68 ГБ

В этой теме нет новых непрочитанных сообщений. Гавайи 5.0 / Hawaii Five-0 [08x01-03 из 22] [Боевик, драма, криминал, 2017] HDTVRip 720p, Dvo [SunshineStudio]

salma3

0 | 0

2.9 ГБ

В этой теме нет новых непрочитанных сообщений. Полиция Гавайев / Гавайи 5.0 / Hawaii Five-0 [s05] [боевик, драма, криминал, 2014-2015] WEB-DL 720p, Mvo [LostFilm]

salma3

12 | 7

36.77 ГБ


Начать новую тему Ответить на тему  [ 1 сообщение ] 




Для Мосгорсуда, Роскомнадзора и рекламодателей:: mosgorsud-torrent[собачка]yandex.ru