Торрент файл
скачать торрент магнет ссылка Добавлен: 12 мар 2012, 23:35
Размер: 1.37 ГБ
Сидеров: 82
Личеров: 18
Автор

СообщениеДобавлено: 12 мар 2012, 23:35 

Не в сети
Супермодератор
Аватара пользователя
Дата регистрации:
22 май 2010, 11:03
Возраст: 32
Спасибо: 7646 / 13
Сообщения: 49894
Природа в сопровождении шедевров мировой музыки / Natures Colors with the Worlds Greatest Music


Перевод: Не требуется [музыкальное сопровождение], cубтитры: отсутствуют
Формат: HDRip, MKV, H.264, AC3
Страна: США
Режиссер: Стив Девик
Жанр: документальный, релакс
Продолжительность: 01:18:01
Год выпуска: 2007

Описание:
Из Бора Боры в Африку, со Среднего Запада к Тихоокеанскому побережью, из Коста-Рики в Бали, с Гавайев на Аризону, со Скалистых гор к Редвудскому парку - это природа самых живописных и красивых мест мира.

Видео: 1024х576 (1.77:1), 29,970 fps, AVC (х264), , ~2058 Kbps avg, 0.116 bit/pixel
Аудио: 48.0 KHz, AC3 Dolby Digital, 6 channels (Front: L C R, Side: L R, LFE), ~448.00 kbps avg
Общее
Уникальный идентификатор: 252990705642562416339869999338323504829 (0xBE543CD10D157E97AB707E29DB04EEBD)
Полное имя: D:\Video\...\Природа в сопровождении шедевров мировой музыки_[tfile.ru].mkv
Формат: Matroska
Версия формата: Version 2
Размер файла: 1,37 Гбайт
Продолжительность: 1 ч. 18 м.
Общий поток: 2508 Кбит/сек
Дата кодирования: UTC 2012-02-09 03:46:01
Программа кодирования: mkvmerge v4.6.0 ('Still Crazy After All These Years') сборка от Apr1 2011 21:01:49
Библиотека кодирования: libebml v1.2.0 + libmatroska v1.1.0

Видео
Идентификатор: 1
Формат: AVC
Формат/Информация: Advanced Video Codec
Профиль формата:
Параметр CABAC формата: Да
Параметр ReFrames формата: 6 кадров
Идентификатор кодека: V_MPEG4/ISO/AVC
Продолжительность: 1 ч. 18 м.
Битрейт: 2058 Кбит/сек
Ширина: 1024 пикселя
Высота: 576 пикселей
Соотношение сторон: 16:9
Частота кадров: 29,970 кадров/сек
Цветовое пространство: YUV
Субдискретизация насыщенности: 4:2:0
Битовая глубина: 8 бит
Тип развёртки: Прогрессивная
Бит/(Пиксели*Кадры): 0.116
Размер потока: 1,10 Гбайт (80%)
Библиотека кодирования: x264 core 115 r1936 7a9e08d
Настройки программы: cabac=1 / ref=6 / deblock=1:0:0 / analyse=0x3:0x113 / me=umh / subme=8 / psy=1 / psy_rd=1.00:0.10 /

mixed_ref=1 / me_range=32 / chroma_me=1 / trellis=2 / 8x8dct=1 / cqm=0 / deadzone=21,11 / fast_pskip=1 / chroma_qp_offset=-3 / threads=3 /

sliced_threads=0 / nr=0 / decimate=1 / interlaced=0 / bluray_compat=0 / constrained_intra=0 / bframes=8 / b_pyramid=2 / b_adapt=2 / b_bias=0 /

direct=1 / weightb=1 / open_gop=0 / weightp=2 / keyint=250 / keyint_min=25 / scenecut=40 / intra_refresh=0 / rc_lookahead=40 / rc=2pass /

mbtree=1 / bitrate=2058 / ratetol=1.0 / qcomp=0.60 / qpmin=0 / qpmax=69 / qpstep=4 / cplxblur=20.0 / qblur=0.5 / ip_ratio=1.40 / aq=2:1.00
Default: Да
Forced: Нет
Основные цвета: SMPTE 240M
Характеристики трансфера: SMPTE 240M
Коэффициенты матрицы: RGB

Аудио
Идентификатор: 2
Формат: AC-3
Формат/Информация: Audio Coding 3
Расширение режима: CM (complete main)
Идентификатор кодека: A_AC3
Продолжительность: 1 ч. 18 м.
Вид битрейта: Постоянный
Битрейт: 448 Кбит/сек
Каналы: 6 каналов
Расположение каналов: Front: L C R, Side: L R, LFE
Частота: 48,0 КГц
Битовая глубина: 16 бит
Метод сжатия: С потерями
Размер потока: 250 Мбайт (18%)
Default: Да
Forced: Нет










Поделиться:




реклама партнёра


Вернуться к началу
 Профиль Отправить личное сообщение  
 
   Похожие торренты   Автор   Торрент   Размер 
В этой теме нет новых непрочитанных сообщений. Океан мечты: Наслаждение красотой моря / Ocean Dreams: Enjoy the Powerful Beauty of the Sea (Сэм Уивер) [2013, Документальный, видовой, музыка, релакс, BDRip 720p]

Nickolas3435

168 | 13

3.6 ГБ

В этой теме нет новых непрочитанных сообщений. Романтические города: Карнавал в Венеции / Romantic City: Carnival in Venice (Жан Люк Беррау) [2010, Документальный, демо, релакс, видовой, путешествие, туризм, города, BDRip 720p]

Nickolas3435

21 | 6

2.16 ГБ

В этой теме нет новых непрочитанных сообщений. Lily Adams - Worlds Greatest Stepdaughter (2016) SiteRip

salma3

0 | 0

373.44 МБ

В этой теме нет новых непрочитанных сообщений. Сан Басе: География вселенной / San Base: Geography of the Universe [музыка, релакс, 2014] BDRip 1080p [3D-Video]

Dracon

35 | 9

17.84 ГБ

В этой теме нет новых непрочитанных сообщений. Лунный свет 3: Дни вечности / Lichtmond 3: Days of Eternity [музыка, релакс, 2014] BDRip 1080p [3D-Video]

Dracon

124 | 18

7.66 ГБ

В этой теме нет новых непрочитанных сообщений. Flying Colors - Flying Colors (Ex-Deep Purple,Dream Theater,Spock's Beard) [2012, Progressive Rock, MP3]

PriZraK

1 | 3

136.63 МБ

В этой теме нет новых непрочитанных сообщений. Как устроена природа (серии 1-4 из 4) / BBC: How Nature Works [документальный, 2012] LowHDTVRip, Dub

salma3

15 | 5

2.81 ГБ


Начать новую тему Ответить на тему  [ 1 сообщение ] 




Для Мосгорсуда, Роскомнадзора и рекламодателей:: mosgorsud-torrent[собачка]yandex.ru