Торрент файл
скачать торрент магнет ссылка Добавлен: 19 фев 2015, 22:12
Размер: 1.03 ГБ
Сидеров: 24
Личеров: 13
Автор

СообщениеДобавлено: 19 фев 2015, 22:12 

Не в сети
Дата регистрации:
27 апр 2014, 21:05
Спасибо: 8 / 0
Сообщения: 61
Палач: последняя тень (Меняйлов)

Перевод: Не требуется, cубтитры: отсутствуют
Формат: WEBRip, AVI, DivX, MP3
Страна: Россия
Режиссер: Алексей Меняйлов
Жанр: история, документальный
Продолжительность: 01:26:44
Год выпуска: 2015

Описание: На шахматной доске жизни палач - это очень важная фигура. И истинный смысл её намного более масштабен, чем убогие представления людей несведущих. И фигура эта делает ходы, которые откликаются даже в Зазеркалье.

Видео: 720x406 (1.77:1), 30 fps, DivX Codec 4.x ~1491 kbps avg, 0.17 bit/pixel
Аудио: 48 kHz, MPEG Layer 3, 2 ch, ~192.00 kbps avg

Доп. информация: Партизанская правда партизан


General
Формат : AVI
Формат/Информация : Audio Video Interleave
Размер файла : 1.03 GiB
Продолжительность : 1h 26mn
Общий поток : 1 694 Kbps

Video
Идентификатор : 0
Формат : MPEG-4 Visual
Параметр BVOP формата : 1
Параметр QPel формата : No
Параметр GMC формата : No warppoints
Параметр матрицы формата : Default (H.263)
Режим смешивания : Packed bitstream
Идентификатор кодека : DX50
Идентификатор кодека/Подсказка : DivX 5
Продолжительность : 1h 26mn
Битрейт : 1 491 Kbps
Ширина : 720 pixels
Высота : 406 pixels
Соотношение сторон : 16:9
Частота кадров : 30.000 fps
Цветовое пространство : YUV
Субдискретизация насыщенности : 4:2:0
Битовая глубина : 8 bits
Тип развёртки : Progressive
Метод сжатия : Lossy
Бит/(Пиксели*Кадры) : 0.170
Размер потока : 925 MiB (88%)
Заголовок : Video
Библиотека кодирования : DivX 2682

Audio
Идентификатор : 1
Формат : MPEG Audio
Версия формата : Version 1
Профиль формата : Layer 3
Режим : Joint stereo
Расширение режима : MS Stereo
Идентификатор кодека : 55
Идентификатор кодека/Подсказка : MP3
Продолжительность : 1h 26mn
Вид битрейта : Constant
Битрейт : 192 Kbps
Каналы : 2 channels
Частота : 48.0 KHz
Метод сжатия : Lossy
Размер потока : 119 MiB (11%)
Выравнивание : Split accross interleaves
Продолжительность промежутка : 33 ms (1.00 video frame)
Время предзагрузки промежутка : 500 ms
Заголовок : Audio - en-US01










реклама партнёра


Вернуться к началу
 Профиль Отправить личное сообщение  
 
   Похожие торренты   Автор   Торрент   Размер 
В этой теме нет новых непрочитанных сообщений. Проститутка как этап в жизни великих (Алексей Меняйлов) [2015, биография, история, психология, WEBRip]

vairgin

15 | 2

251.68 МБ

В этой теме нет новых непрочитанных сообщений. Как вернуть возлюбленного (Алексей Меняйлов) [2016, История, психология, самиздат, WEBRip]

vairgin

6 | 4

70.48 МБ

В этой теме нет новых непрочитанных сообщений. "Надо" товарища Сталина ("День командира дивизии") (Алексей Меняйлов) [2014, военный, документальный, история, WEBRip]

vairgin

75 | 18

328.03 МБ

В этой теме нет новых непрочитанных сообщений. Таинственные исчезновения Сталина из его 2-ой ссылки (Алексей Меняйлов) [2014, военный, история, комедия, WEBRip]

vairgin

64 | 3

1005.34 МБ

В этой теме нет новых непрочитанных сообщений. Как Украине освободиться от оккупантов (Алексей Меняйлов) [2015, исторический, WEBRip]

vairgin

25 | 12

167.74 МБ

В этой теме нет новых непрочитанных сообщений. Сталин и Зоя: трудное решение (Алексей Меняйлов) [2012, Документальный фильм, WEBRip]

vairgin

4 | 3

1.09 ГБ

В этой теме нет новых непрочитанных сообщений. Почему девушки так торопятся дать? (Алексей Меняйлов) [2015, Психология, юмор, WEBRip]

vairgin

160 | 9

168.52 МБ


Начать новую тему Ответить на тему  [ 1 сообщение ] 




Для Мосгорсуда, Роскомнадзора и рекламодателей:: mosgorsud-torrent[собачка]yandex.ru