Торрент файл
скачать торрент магнет ссылка Добавлен: 19 фев 2012, 12:59
Размер: 4.37 ГБ
Сидеров: 43
Личеров: 9
Автор

СообщениеДобавлено: 19 фев 2012, 12:59 

Не в сети
Дата регистрации:
13 фев 2012, 15:52
Спасибо: 8 / 0
Сообщения: 19
Эрмитаж / The State Hermitage Museum


Перевод: Не требуется, cубтитры: отсутствуют
Формат: BDRip, MKV, H.264, AC3
Страна: Россия
Режиссер: Игорь Лебедев
Жанр: видеоэкскурсия
Продолжительность: 03:48:00
Год выпуска: 2006
Текст читает: Геннадий Смирнов

Описание: Государственный Эрмитаж принадлежит к числу величайших музеев мира. Почти за два с половиной столетия в нем собрана одна из крупнейших коллекций памятников мировой культуры, насчитывающая около трех миллионов экспонатов. Этот фильм - самая полная, увлекательная экскурсия по бывшей царской резиденции с ее неповторимыми интерьерами и грандиозными парадными залами, по выставкам произведений живописи, скульптуры, декоративно-прикладного искусства разных эпох.

Зрителю представится возможность услышать интересный рассказ об истории создания музея. В фильм так же включены уникальные съемки экспонатов хранящихся в Особой кладовой Эрмитажа - золота скифов, изделий из драгоценных металлов и камней, выполненных тысячелетия тому назад, а также Галереи драгоценностей, где представлены произведения западноевропейского ювелирного искусства, украшенные бриллиантами, сапфирами, рубинами и изумрудами.


Видео: 1280x720 (16:9), 25.000 fps, AVC(х264), , ~ 2 356 Kbps, 0.102 bit/pixel
Аудио #1: 48 kHz, AC3, 2 ch, ~128.00 kbps avg Русский
Аудио #2: 48 kHz, AC3, 2 ch, ~128.00 kbps avg Английский
Аудио #3: 48 kHz, AC3, 2 ch, ~128.00 kbps avg Немецкий

General
Unique ID: 199085621035562594238079943322806298421 (0x95C67EF3A028993BBD1B7F29E640A735)
Complete name: D:\фильмы\the_state_hermitage_museum.mkv
Format: Matroska
File size: 4.37 GiB
Duration: 3h 48mn
Overall bit rate: 2 743 Kbps
Encoded date: UTC 2011-11-09 03:06:02
Writing application: mkvmerge v5.0.1 ('Es ist Sommer') built on Oct9 2011 11:55:43
Writing library: libebml v1.2.2 + libmatroska v1.3.0

Video
ID: 1
Format: AVC
Format/Info: Advanced Video Codec
Format profile:
Format settings, CABAC: Yes
Format settings, ReFrames: 8 frames
Codec ID: V_MPEG4/ISO/AVC
Duration: 3h 48mn
Bit rate: 2 356 Kbps
Width: 1 280 pixels
Height: 720 pixels
Display aspect ratio: 16:9
Frame rate: 25.000 fps
Color space: YUV
Chroma subsampling: 4:2:0
Bit depth: 8 bits
Scan type: Progressive
Bits/(Pixel*Frame): 0.102
Stream size: 3.67 GiB (84%)
Writing library: x264 core 119 r2106 07efeb4
Encoding settings: cabac=1 / ref=8 / deblock=1:-1:-1 / analyse=0x3:0x133 / me=umh / subme=8 / psy=1 / psy_rd=1.00:0.15 / mixed_ref=1 / me_range=24 / chroma_me=1 / trellis=2 / 8x8dct=1 / cqm=0 / deadzone=21,11 / fast_pskip=0 / chroma_qp_offset=-3 / threads=6 / sliced_threads=0 / nr=0 / decimate=1 / interlaced=0 / bluray_compat=0 / constrained_intra=0 / bframes=6 / b_pyramid=2 / b_adapt=2 / b_bias=0 / direct=1 / weightb=1 / open_gop=0 / weightp=2 / keyint=250 / keyint_min=23 / scenecut=40 / intra_refresh=0 / rc_lookahead=60 / rc=2pass / mbtree=1 / bitrate=2356 / ratetol=1.0 / qcomp=0.60 / qpmin=10 / qpmax=51 / qpstep=4 / cplxblur=20.0 / qblur=0.5 / ip_ratio=1.40 / aq=1:1.00
Language: English

Audio #1
ID: 2
Format: AC-3
Format/Info: Audio Coding 3
Mode extension: CM (complete main)
Codec ID: A_AC3
Duration: 3h 48mn
Bit rate mode: Constant
Bit rate: 128 Kbps
Channel(s): 2 channels
Channel positions: Front: L R
Sampling rate: 48.0 KHz
Bit depth: 16 bits
Compression mode: Lossy
Stream size: 209 MiB (5%)
Language: Russian

Audio #2
ID: 3
Format: AC-3
Format/Info: Audio Coding 3
Mode extension: CM (complete main)
Codec ID: A_AC3
Duration: 3h 48mn
Bit rate mode: Constant
Bit rate: 128 Kbps
Channel(s): 2 channels
Channel positions: Front: L R
Sampling rate: 48.0 KHz
Bit depth: 16 bits
Compression mode: Lossy
Stream size: 209 MiB (5%)
Language: English

Audio #3
ID: 4
Format: AC-3
Format/Info: Audio Coding 3
Mode extension: CM (complete main)
Codec ID: A_AC3
Duration: 3h 48mn
Bit rate mode: Constant
Bit rate: 128 Kbps
Channel(s): 2 channels
Channel positions: Front: L R
Sampling rate: 48.0 KHz
Bit depth: 16 bits
Compression mode: Lossy
Stream size: 209 MiB (5%)
Language: German







Поделиться:




реклама партнёра


Вернуться к началу
 Профиль Отправить личное сообщение  
 
   Похожие торренты   Автор   Торрент   Размер 
В этой теме нет новых непрочитанных сообщений. Искусство умирать / Искусство смерти / The Art of Dying [криминал, триллер, 1991] DVDRip, Avo

salma3

5 | 3

1.45 ГБ

В этой теме нет новых непрочитанных сообщений. Ночь в музее 2 / Night at the Museum: Battle of the Smithsonian [фэнтези, комедия, приключения, семейный, 2009] BDRip 720p, Dub+Sub [Лицензия]

salma3

680 | 68

6.93 ГБ

В этой теме нет новых непрочитанных сообщений. Эрмитаж. Сокровища нации [Документальный, познавательный, история, 2014] HDTVRip

Dracon

135 | 17

609.1 МБ

В этой теме нет новых непрочитанных сообщений. Лондонский Музей естествознания вживую / Natural History Museum Alive [Документальный, Видовой, 2014] BDRip 1080p [3D-Video] Рус.субтитры

Dracon

104 | 3

3.37 ГБ

В этой теме нет новых непрочитанных сообщений. VA - The Metal Museum (20 CD) [2006, Metal, MP3]

PriZraK

0 | 1

3.38 ГБ

В этой теме нет новых непрочитанных сообщений. Ночь в музее: Секрет гробницы / Night at the Museum: Secret of the Tomb (Шон Леви) [Фэнтези, комедия, приключения, семейный, 2015] BDRip 1080p, Dub+Sub [Лицензия]

Dracon

484 | 62

11.94 ГБ

В этой теме нет новых непрочитанных сообщений. Ночь в музее: Секрет гробницы / Night at the Museum: Secret of the Tomb (Шон Леви) [Фэнтези, комедия, приключения, семейный, 2015] BDRip 720p, Dub+Sub [Лицензия]

Dracon

208 | 17

3.66 ГБ


Начать новую тему Ответить на тему  [ 1 сообщение ] 




Для Мосгорсуда, Роскомнадзора и рекламодателей:: mosgorsud-torrent[собачка]yandex.ru