Торрент файл
скачать торрент магнет ссылка Добавлен: 13 окт 2011, 13:40
Размер: 465.63 МБ
Сидеров: 88
Личеров: 9
Автор

СообщениеДобавлено: 13 окт 2011, 13:40 

Не в сети
Супермодератор
Аватара пользователя
Дата регистрации:
22 май 2010, 11:03
Возраст: 32
Спасибо: 7670 / 13
Сообщения: 49894
Болотов Борис Васильевич: Новая теория атомного ядра



Перевод: Не требуется, cубтитры: отсутствуют
Формат: DVDRip, AVI, DivX, MP3
Страна: Россия
Режиссер: Болотов Борис Васильевич
Жанр: документальный
Продолжительность: 01:43:18
Год выпуска: 2011
В ролях: Болотов Борис Васильевич

Описание: Имя Бориса Болотова не нуждается в представлении - оно известно далеко за пределами Украины. Человек, расширивший пределы знаний о Природе заложил основы многих новых направлений в развитии человечества, дал теоретическое обоснование волновой природе строения мира, и на практике доказал их верность! Его физико-химическая таблица изостеров отражает реальное строение более 10000 веществ, которые существуют в природе, таблица Менделеева является лишь частным случаем его периодического закона!
Болотов Борис Васильевич родился 30.11.1930 года в посёлке Глотовка Инзенского района Ульяновской области.
Окончил Одесский Электротехнический институт связи, аспирантуру в Москве. Ему давали квартиру в Москве, но в Киеве предложили интересную работу - так в 1962 году он оказался в Киеве. В 1964-м стал кандидатом наук и сам "ядерщик" Андрей Сахаров, заинтересовавшись болотовской идеей "холодного" ядерного реактора, пригласил киевлянина в докторантуру. Однако жизнь заставила пойти в Киевский академический Институт электродинамики (1965), где Борисом Васильевичем Болотовым была подготовлена докторская диссертация, успешно прошедшая предварительную защиту.
И вдруг - всё ускоряющийся спуск с весьма успешного карьерного хребта. Лекции в Политехническом, завлаб лазерных установок в Институте целлюлозно-бумажной промышленности (1975-1978 гг.) и, наконец, 15 марта 1983 г. - арест, психиатрические экспертизы и приговор на 8 (восемь) лет лишения свободы. Он отбыл из них 7 (семь), реабилитирован по политическим статьям в мае 1989 г., а 7 апреля 1990 года Русская Академия присвоила Борису Болотову почётное звание "Народный академик". Сейчас он продолжает работать.


Релиз: проект Zaryad

Видео: 640x480 (4:3), 25.0 fps, DivX 5, 556 Kbps, 0.072bits
Аудио: 48.0 KHz, MPEG Audio Layer 3 Version 1 , 1 channel, 64.0 Kbps, русский, оригинал

Доп. информация:
Другие«Релизы проекта Заряд»
Научный сериал «Энергия из вакуума»
д/ф «Потерянные секреты Николы Теслы»
д/ф «Генератор Тесла (Грузинский вариант)»
д/ф «Тяжелый Уотергейт - Война против холодного ядерного
д/ф «Кто убил электромобиль»

Борис Васильевич.avi
Format: AVI
Format/Info: Audio Video Interleave
File size: 466 MiB
Duration: 1h 43mn
Overall bit rate: 630 Kbps
Writing application: VirtualDubMod 1.5.10.2 (build 2542/release)
Writing library: VirtualDubMod build 2542/release

Video
ID: 0
Format: MPEG-4 Visual
Format settings, BVOP: Yes
Format settings, QPel: No
Format settings, GMC: No warppoints
Format settings, Matrix: Default (H.263)
Codec ID: DX50
Codec ID/Hint: DivX 5
Duration: 1h 43mn
Bit rate: 556 Kbps
Width: 640 pixels
Height: 480 pixels
Display aspect ratio: 4:3
Frame rate: 25.000 fps
Color space: YUV
Chroma subsampling: 4:2:0
Bit depth: 8 bits
Scan type: Progressive
Compression mode: Lossy
Bits/(Pixel*Frame): 0.072
Stream size: 411 MiB (88%)
Writing library: DivX 6.8.5 (UTC 2009-08-20)

Audio
ID: 1
Format: MPEG Audio
Format version: Version 1
Format profile: Layer 3
Codec ID: 55
Codec ID/Hint: MP3
Duration: 1h 43mn
Bit rate mode: Constant
Bit rate: 64.0 Kbps
Channel(s): 1 channel
Sampling rate: 48.0 KHz
Compression mode: Lossy
Stream size: 47.3 MiB (10%)
Alignment: Split accross interleaves
Interleave, duration: 40 ms (1.00 video frame)
Interleave, preload duration: 500 ms











Поделиться:




реклама партнёра


Вернуться к началу
 Профиль Отправить личное сообщение  
 
   Похожие торренты   Автор   Торрент   Размер 
В этой теме нет новых непрочитанных сообщений. Теория заговора. Прогресс — зло [13.11] (Документальный, познавательный, расследование, 2016) HDTV 1080i от GeneralFilm

marya111

1 | 0

2.22 ГБ

В этой теме нет новых непрочитанных сообщений. Теория заговора. Еда вместо антидепрессантов [06.11] (Документальный, познавательный, расследование, 2016) HDTV 1080i от GeneralFilm

marya111

4 | 0

2.22 ГБ

В этой теме нет новых непрочитанных сообщений. Last may - Теория границ [2011, Metalcore, post-hardcore, MP3]

PriZraK

0 | 1

113.15 МБ

В этой теме нет новых непрочитанных сообщений. Лампа накаливания - Теория другого рода [2011, Psychedelic Rock, MP3]

PriZraK

0 | 2

139.82 МБ

В этой теме нет новых непрочитанных сообщений. Его звали ДЕД (Алексей Барбарук-Трипольский) [2011, документальный, военный, история, DVDRip]

salma3

0 | 0

251.32 МБ

В этой теме нет новых непрочитанных сообщений. Слава блудницы / Whores' Glory (Михаэль Главоггер) [2011, документальный, DVDRip] Sub

Nickolas3435

323 | 31

1.46 ГБ

В этой теме нет новых непрочитанных сообщений. Наука голодания (Сильвия Жильман, Тьерри де Лестрад) [2011, документальный, медицина, DVDRip] AVO

salma3

0 | 0

700.09 МБ


Начать новую тему Ответить на тему  [ 1 сообщение ] 




Для Мосгорсуда, Роскомнадзора и рекламодателей:: mosgorsud-torrent[собачка]yandex.ru