Торрент файл
скачать торрент магнет ссылка Добавлен: 17 май 2014, 13:35
Размер: 434.42 МБ
Сидеров: 3
Личеров: 6
Статус: (salma3)
Автор

СообщениеДобавлено: 17 май 2014, 13:35 

Не в сети
Дата регистрации:
27 апр 2014, 21:05
Спасибо: 8 / 0
Сообщения: 61
Методика допроса женщин. Анализ фильма "Основной инстинкт" (Алексей Меняйлов)


Перевод: Не требуется, cубтитры: отсутствуют
Формат: WEBRip, MPEG, MPEG2, MP2
Страна: Россия
Режиссер: Алексей Меняйлов
Жанр: Психологический анализ фильма
Продолжительность: 00:16:18
Год выпуска: 2012
Описание: "Основной инстинкт" - шедевр мирового кинематографа. Как и всякий шедевр он достоин многократных пересмотров и обсуждений каждого эпизода. В представляемом ролике обсуждается эпизод допроса подозреваемой. В этом эпизоде есть целый ряд неожиданных деталей, ускользающих от поверхностного взгляда. Интеллектуальное удовольствие гарантировано.
Видео: 720*576 (4:3), 25 fps, MPEG-2, 3427 Kbps, 0.329 bit/pixe
Аудио: 44,1 KHz, MPEG-1 Layer 2, Stereo, ~ 224 Kbps

Общее
Формат : MPEG-PS
Размер файла : 434 Мбайт
Продолжительность : 16 м.
Режим общего битрейта : Переменный
Общий поток : 3725 Кбит/сек

Видео
Идентификатор : 224 (0xE0)
Формат : MPEG Video
Версия формата : Version 2
Профиль формата : Main@Main
Параметр BVOP формата : Да
Параметр матрицы формата : По умолчанию
Параметр GOP формата : M=3, N=12
Продолжительность : 16 м.
Вид битрейта : Переменный
Битрейт : 3427 Кбит/сек
Максимальный битрейт : 6000 Кбит/сек
Ширина : 720 пикселей
Высота : 576 пикселей
Соотношение сторон : 4:3
Частота кадров : 25,000 кадров/сек
Стандарт вещания : PAL
Цветовое пространство : YUV
Субдискретизация насыщенности : 4:2:0
Битовая глубина : 8 бит
Тип развёртки : Прогрессивная
Метод сжатия : С потерями
Бит/(Пиксели*Кадры) : 0.331
Временной код первого кадра : 00:00:00:00
Оригинал временного кода : Group of pictures header
Размер потока : 400 Мбайт (92%)
Основные цвета : BT.601 PAL
Характеристики трансфера : BT.470 System B, BT.470 System G
Коэффициенты матрицы : BT.601

Аудио
Идентификатор : 192 (0xC0)
Формат : MPEG Audio
Версия формата : Version 1
Профиль формата : Layer 2
Продолжительность : 16 м.
Вид битрейта : Постоянный
Битрейт : 224 Кбит/сек
Каналы : 2 канала
Частота : 48,0 КГц
Метод сжатия : С потерями
Размер потока : 26,1 Мбайт (6%)








Последний раз редактировалось vairgin 18 май 2014, 17:32, всего редактировалось 1 раз.


реклама партнёра


Вернуться к началу
 Профиль Отправить личное сообщение  
 
   Похожие торренты   Автор   Торрент   Размер 
В этой теме нет новых непрочитанных сообщений. Ланиста Ботиата. Анализ фильма "Спартак", Стэнли Кубрика [Анализ ключевых эпизодов фильма, 2012] WEBRip

vairgin

1 | 4

2.82 ГБ

В этой теме нет новых непрочитанных сообщений. Херхор ("Фараон" Ежи Кавалерович) Алексей Меняйлов [2012, психологический анализ фильма, WEBRip] фильм о фильме

vairgin

7 | 3

1.64 ГБ

В этой теме нет новых непрочитанных сообщений. Шаман гиперборейской школы - 2. ("В бой идут одни "старики", Алексей Меняйлов) [2012, Психологический анализ фильма, WEBRip]

vairgin

6 | 6

288.88 МБ

В этой теме нет новых непрочитанных сообщений. Её путь на сцену через убийство "Чикаго" [Психологический анализ фильма, 2011] WEBRip

vairgin

0 | 1

239.84 МБ

В этой теме нет новых непрочитанных сообщений. Аватар. Тайна управления молодой Цахик [Анализ ключевых эпизодов фильма, 2012] WEBRip

vairgin

2 | 3

539.63 МБ

В этой теме нет новых непрочитанных сообщений. Что можно узнать о женщине по лицу и одежде (Алексей Меняйлов) [2012, Анализ ключевых эпизодов фильма, WEBRip]

vairgin

44 | 4

274.14 МБ

В этой теме нет новых непрочитанных сообщений. Тайна женщины несущей удачу ("Титаник" Джеймс Кэмерон) [Анализ ключевых эпизодов фильма, 2012] WEBRip

vairgin

0 | 3

134.77 МБ


СообщениеДобавлено: 17 май 2014, 15:13 

Не в сети
Зам. Админа
Аватара пользователя
Дата регистрации:
02 дек 2010, 12:39
Спасибо: 12508 / 214
Сообщения: 28044
Название фильма [жанр, год] качество


Вернуться к началу
 Профиль  
 

СообщениеДобавлено: 18 май 2014, 17:33 

Не в сети
Дата регистрации:
27 апр 2014, 21:05
Спасибо: 8 / 0
Сообщения: 61
Dracon писал(а):
Название фильма [жанр, год] качество


Здравствуйте. Исправил


Вернуться к началу
 Профиль Отправить личное сообщение  
 
Начать новую тему Ответить на тему  [ Сообщений: 3 ] 




Для Мосгорсуда, Роскомнадзора и рекламодателей:: mosgorsud-torrent[собачка]yandex.ru