Торрент файл
скачать торрент магнет ссылка Добавлен: 12 мар 2012, 23:32
Размер: 3.22 ГБ
Сидеров: 12
Личеров: 9
Автор

СообщениеДобавлено: 12 мар 2012, 23:32 

Не в сети
Супермодератор
Аватара пользователя
Дата регистрации:
22 май 2010, 11:03
Возраст: 32
Спасибо: 7646 / 13
Сообщения: 49894
Николай Левашов. Архангельские выступления, 1991 г.


Перевод: Не требуется, cубтитры: отсутствуют
Формат: VHSRip, MP4, H.263, AAC
Страна: СССР
Жанр: Семинар
Продолжительность: 03:21:13
Год выпуска: 1991
В ролях: Николай Левашов

Описание: «Основной целью моего просветительно-оздоровительного выступления было пробуждение людей от сна. Но… многие спали, и просыпаться совсем не желали, а даже наоборот, им очень нравилось “спать”. И таких людей совсем не интересовало понимание природы вещей. Им хотелось только зрелищ и ничего другого. Другой части аудитории ничего не было нужно, кроме оздоровительного сеанса. Среди всей массы зрителей, ищущие понимание составляли подавляющее меньшинство. Я это понял очень быстро, как только начал своё выступление. Я ощущал весь зал, эмоции и мысли всей аудитории и понял, что необходимо найти какое-то решение, казалось бы, неразрешимой задачи – дать каждому зрителю всё то, ради чего он пришёл, и плюс ещё то, что нужно для пробуждения от сна. Каждому зрителю… но ведь существовало, как минимум, три группы зрителей – пришедшие получить зрелище или “цирк”, как я это называю; получить между делом лечение своих проблем со здоровьем, и третья группа, которая искала понимания, хотя бы малейшего понимания. И вот нужно было дать им всем то, ради чего они пришли, и сделать это надо было одновременно, во время одного выступления. И мне пришлось в “боевых” условиях создавать тактику и стратегию своего выступления…»

«До начала моих выступлений для меня организовали небольшую экскурсию по местным достопримечательностям и вот наступил вечер моего первого публичного выступления. Выступление начиналось в семь часов вечера. В первый день зал был наполовину пуст или наполовину полон, в зависимости от того, кому что нравиться. Хозяин актового зала объявил моё выступление и я оказался один на один с залом…»

© Николай Левашов, "Зеркало моей души", том 1.


Видео: 720x576 (1.33:1), 25 fps, H.263 MPEG-4 Visual ~2098 kbps avg, 0.202 bit/pixel
Аудио: 44.100 kHz, AAC, 2 ch, ~192.00 kbps avg

Полное имя: Левашов. Архангельск 1991 г.mp4
Формат: MPEG-4
Профиль формата: Base Media / Version 2
Идентификатор кодека: mp42
Размер файла: 3,22 Гбайт
Продолжительность: 3 ч. 21 м.
Режим общего битрейта: Переменный
Общий поток: 2290 Кбит/сек
Дата кодирования: UTC 2012-01-24 05:56:18
Дата пометки: UTC 2012-01-24 06:06:07
Программа кодирования: mp4creator 1.6.1d

Видео
Идентификатор: 1
Формат: MPEG-4 Visual
Профиль формата: Simple@L1
Параметр BVOP формата: Нет
Параметр QPel формата: Нет
Параметр GMC формата: Без точки перехода
Параметр матрицы формата: Default (H.263)
Идентификатор кодека: 20
Продолжительность: 3 ч. 21 м.
Вид битрейта: Переменный
Битрейт: 2098 Кбит/сек
Максимальный битрейт: 5853 Кбит/сек
Ширина: 720 пикселей
Высота: 576 пикселей
Соотношение сторон: 4:3
Режим частоты кадров: Постоянный
Частота кадров: 25,000 кадров/сек
Стандарт вещания: PAL
Цветовое пространство: YUV
Субдискретизация насыщенности: 4:2:0
Битовая глубина: 8 бит
Тип развёртки: Прогрессивная
Метод сжатия: С потерями
Бит/(Пиксели*Кадры): 0.202
Размер потока: 2,95 Гбайт (92%)
Язык: English
Дата кодирования: UTC 2012-01-24 05:56:18
Дата пометки: UTC 2012-01-24 06:05:59

Аудио
Идентификатор: 2
Формат: AAC
Формат/Информация: Advanced Audio Codec
Профиль формата: LC
Идентификатор кодека: 40
Продолжительность: 3 ч. 21 м.
Вид битрейта: Переменный
Битрейт: 192 Кбит/сек
Максимальный битрейт: 250 Кбит/сек
Каналы: 2 канала
Расположение каналов: Front: L R
Частота: 44,1 КГц
Метод сжатия: С потерями
Размер потока: 273 Мбайт (8%)
Язык: English
Дата кодирования: UTC 2012-01-24 06:06:01
Дата пометки: UTC 2012-01-24 06:06:07
Material_Duration: 12073981
Material_StreamSize: 285978479



Доп. информация: Произведены реставрация видео- и ремастеринг аудиодорожек.










Поделиться:




реклама партнёра


Вернуться к началу
 Профиль Отправить личное сообщение  
 
   Похожие торренты   Автор   Торрент   Размер 
В этой теме нет новых непрочитанных сообщений. Не из этого мира / Not of This World [ужасы, фантастика, 1991] VHSRip, Dvo+Sub

salma3

45 | 9

1.37 ГБ

В этой теме нет новых непрочитанных сообщений. Папа – робот / Кибернетический папа / And You Thought Your Parents Were Weird [Фантастическая комедия, 1991] VHSRip, Avo

salma3

13 | 2

1.38 ГБ

В этой теме нет новых непрочитанных сообщений. La Reine des Salopes / Janine Ganz Pervers / Совершенно извращенная Джанин (John Love (Alain Payet), Magma) [1991 г., Anal, Facial, VHSRip]

max77777

2 | 1

693.09 МБ

В этой теме нет новых непрочитанных сообщений. The Law - The Law [1991, Melodic Rock,AOR, MP3]

PriZraK

0 | 1

109.21 МБ

В этой теме нет новых непрочитанных сообщений. А как же Боб? / What About Bob? [комедия, 1991] WEB-DL 720p, Dub+2Mvo+Avo+Sub

salma3

27 | 3

3.63 ГБ

В этой теме нет новых непрочитанных сообщений. Massacre - From Beyond [1991, Death Metal, MP3]

PriZraK

0 | 1

90.94 МБ

В этой теме нет новых непрочитанных сообщений. Zемфира + Rammstein - Studioworks [1991, Rock, MP3]

PriZraK

62 | 4

88.13 МБ


Начать новую тему Ответить на тему  [ 1 сообщение ] 




Для Мосгорсуда, Роскомнадзора и рекламодателей:: mosgorsud-torrent[собачка]yandex.ru