Торрент файл
скачать торрент магнет ссылка Добавлен: 12 мар 2012, 23:31
Размер: 1.45 ГБ
Сидеров: 20
Личеров: 9
Автор

СообщениеДобавлено: 12 мар 2012, 23:31 

Не в сети
Супермодератор
Аватара пользователя
Дата регистрации:
22 май 2010, 11:03
Возраст: 31
Спасибо: 7599 / 13
Сообщения: 49938
Николай Левашов. Интервью каналу РОССИЯ 1 (8 декабря 2011 г.)


Перевод: Не требуется, cубтитры: отсутствуют
Формат: CamRip, MP4, AVC, AAC
Страна: Россия
Жанр: Интервью
Продолжительность: 01:07:25
Год выпуска: 2011
В ролях: Николай Левашов

Описание: 8 декабря 2011 года по инициативе телеканала Россия-1 было записано часовое интервью с Николаем Левашовым. Самовыдвижение Н.В. Левашова кандидатом на должность Президента России было неожиданным и вынудило центральные телеканалы запастись хоть какими-нибудь материалами о будущем кандидате, чтобы не ударить лицом в грязь, в случае «непредвиденных обстоятельств» – законного вступления Н.В. Левашова в предвыборную борьбу за власть в России… Однако, это интервью, точно так же, как и предыдущее, не увидело эфира, т.е. было сокрыто от зрительской аудитории. Предвидя такой шаг демократических СМИ, мы выкладываем полный вариант интервью, запись которого велась параллельно с операторами телеканала Россия-1. Любой материал о Н.В. Левашове вызывает у зрителей устойчивый, постоянный интерес. И это интервью не стало исключением…

Видео: 1280x720 (1.33:1), 25 fps, AVC ~2937 kbps avg, 0.127 bit/pixel
Аудио: 44.100 kHz, AAC, 2 ch, ~128.00 kbps avg

Полное имя: Левашов. Интервью каналу РОССИЯ 1 8 декабря 2011 г.mp4
Формат: MPEG-4
Профиль формата: Base Media / Version 2
Идентификатор кодека: mp42
Размер файла: 1,45 Гбайт
Продолжительность: 1 ч. 7 м.
Режим общего битрейта: Переменный
Общий поток: 3069 Кбит/сек
Программа кодирования: TMPGEnc Video Mastering Works 5 Version. 5.0.5.32

Видео
Идентификатор: 2
Формат: AVC
Формат/Информация: Advanced Video Codec
Профиль формата:
Параметр CABAC формата: Да
Параметр ReFrames формата: 3 кадра
Идентификатор кодека: avc1
Идентификатор кодека/Информация: Advanced Video Coding
Продолжительность: 1 ч. 7 м.
Вид битрейта: Постоянный
Битрейт: 2937 Кбит/сек
Номинальный битрейт: 3200 Кбит/сек / 3200 Кбит/сек
Ширина: 1280 пикселей
Высота: 720 пикселей
Соотношение сторон: 16:9
Режим частоты кадров: Постоянный
Частота кадров: 25,000 кадров/сек
Стандарт вещания: NTSC
Цветовое пространство: YUV
Субдискретизация насыщенности: 4:2:0
Битовая глубина: 8 бит
Тип развёртки: Прогрессивная
Бит/(Пиксели*Кадры): 0.127
Размер потока: 1,38 Гбайт (96%)
Библиотека кодирования: x264 core 112
Настройки программы: cabac=1 / ref=3 / deblock=1:0:0 / analyse=0x3:0x113 / me=hex / subme=7 / psy=1 / psy_rd=1.00:0.00 / mixed_ref=1 / me_range=16 / chroma_me=1 / trellis=1 / 8x8dct=1 / cqm=2 / deadzone=21,11 / fast_pskip=1 / chroma_qp_offset=-2 / threads=6 / sliced_threads=0 / slices=1 / nr=0 / decimate=1 / interlaced=0 / constrained_intra=0 / bframes=3 / b_pyramid=0 / b_adapt=1 / b_bias=0 / direct=1 / weightb=1 / open_gop=0 / weightp=2 / keyint=250 / keyint_min=25 / scenecut=40 / intra_refresh=0 / rc_lookahead=40 / rc=cbr / mbtree=1 / bitrate=3200 / ratetol=1.0 / qcomp=0.60 / qpmin=3 / qpmax=51 / qpstep=4 / vbv_maxrate=3200 / vbv_bufsize=3194 / nal_hrd=cbr / frame-packing=0 / ip_ratio=1.40 / aq=1:1.00
Основные цвета: BT.709-5, BT.1361, IEC 61966-2-4, SMPTE RP177
Характеристики трансфера: BT.709-5, BT.1361
Коэффициенты матрицы: BT.709-5, BT.1361, IEC 61966-2-4 709, SMPTE RP177

Аудио
Идентификатор: 1
Формат: AAC
Формат/Информация: Advanced Audio Codec
Профиль формата: LC
Идентификатор кодека: 40
Продолжительность: 1 ч. 7 м.
Вид битрейта: Переменный
Битрейт: 128 Кбит/сек
Максимальный битрейт: 576 Кбит/сек
Каналы: 2 канала
Расположение каналов: Front: L R
Частота: 48,0 КГц
Метод сжатия: С потерями
Размер потока: 61,7 Мбайт (4%)









Поделиться:




реклама партнёра


Вернуться к началу
 Профиль Отправить личное сообщение  
 
   Похожие торренты   Автор   Торрент   Размер 
В этой теме нет новых непрочитанных сообщений. Эксклюзивное интервью с министром иностранных дел РФ Сергеем Лавровым [Эксклюзивное интервью, 18.07.2014] SatRip

Dracon

0 | 3

484.72 МБ

В этой теме нет новых непрочитанных сообщений. Мой герой [01-07] [2015, Авторская программа, беседа, интервью, SATRip]

Nickolas3435

0 | 3

3.3 ГБ

В этой теме нет новых непрочитанных сообщений. Звезда на «Звезде» [101] (Ток-шоу, беседа, интервью, 2016) WEBRip от Files-х

marya111

1 | 1

490.91 МБ

В этой теме нет новых непрочитанных сообщений. Comedy Club. В гостях у радио MIX FM [1-9] [Интервью, 2014] WEB-DL 720p

Dracon

17 | 5

2.03 ГБ

В этой теме нет новых непрочитанных сообщений. Звезда на «Звезде» [101] (Ток-шоу, беседа, интервью, 2016) WEBRip от Files-х

marya111

5 | 5

4.51 ГБ

В этой теме нет новых непрочитанных сообщений. Звезда на «Звезде» [101] (Ток-шоу, беседа, интервью, 2016) WEBRip от Files-х

marya111

4 | 4

2.41 ГБ

В этой теме нет новых непрочитанных сообщений. Мой герой. [01-32] (Татьяна Устинова) [2015, Авторская программа, беседа, интервью, SATRip]

Nickolas3435

0 | 4

15.14 ГБ


Начать новую тему Ответить на тему  [ 1 сообщение ] 




Для Мосгорсуда, Роскомнадзора и рекламодателей:: mosgorsud-torrent[собачка]yandex.ru