Торрент файл
скачать торрент магнет ссылка Добавлен: 08 апр 2011, 13:31
Размер: 54.4 ГБ
Сидеров: 99
Личеров: 105
Автор

СообщениеДобавлено: 08 апр 2011, 13:31 

Не в сети
Супермодератор
Аватара пользователя
Дата регистрации:
22 май 2010, 11:03
Возраст: 33
Спасибо: 7741 / 13
Сообщения: 49837
Фильмография Адриано Челентано / Adriano Celentano's Filmography




Актер:Адриано Челентано

Дата рождения:6 января 1938

Место рождения:Милан, Королевство Италия

Гражданство:Италия

Жанры:Комедия

Первый фильм:1959 - Ребята и музыкальный автомат

Последний фильм:1992 — Джекпот

Прозвище:«Мolleggiato» (итал. на пружинах) — за свою манеру двигаться на сцене.

Профессия:певец, актёр

Страница на IMDB

Официальный веб-сайт

Страница на Кинопоиске



Сладкая жизнь / La Dolce vita




Перевод:Профессиональный (двухголосый), субтитры: русские, английские
Формат:DVDRip, MKV, H264, AAC LC
Страна:Франция, Италия
Жанр:драма
Продолжительность:02:47:01
Режиссер:Федерико Феллини / Federico Fellini
Год выпуска:1960

В ролях:Марчелло Мастроянни, Анита Экберг, Анук Эме, Мэгали Ноэль, Ален Кюни, Риккардо Гарроне, Адриано Челентано

Описание: Журналист Марчелло погружён в сладкую, развратную жизнь Вечного города. Его можно сравнить с Вергилием, проходящим все круги современного ада и наблюдающим «божественную комедию» Рима конца 50-х. Женщины как тени сменяют друг друга, не задевая его чувств, даже явление американской кинодивы Сильвии, воплощения сексуальности и порока, не выводит его из ступора. Внезапное самоубийство его друга Штайнера, пришедшего к мысли о бессмысленности их жизни, приводит Марчелло к катарсису, но надолго ли…

Роль Himself

Рейтинг Кинопоиск.RU: 8.198
Рейтинг IMDB: 8.1/10

Видео:720x432, 25fps, x264 core 65, ~1651kbps, 0.212 Bits/(Pixel*Frame)
Аудио 1:Русский AAC-LC stereo, 48KHz, 2 channels, ~73Kbps [Профессиональный (двухголосый)]
Аудио 2:Итальянский AAC-LC stereo, 48KHz, 2 channels, ~60Kbps [Оригинал]



General
Complete name : Dolce_Vita.mkv
Format : Matroska
File size : 2.09 GiB
Duration : 2h 47mn
Overall bit rate : 1 792 Kbps
Encoded date : UTC 2008-11-29 05:01:21
Writing application : mkvmerge v2.4.0 ('Fumbling Towards Ecstasy') built on Oct 11 2008 20:13:15
Writing library : libebml v0.7.7 + libmatroska v0.8.1
Cover : Yes
Video #1
ID : 1
Format : AVC
Format/Info : Advanced Video Codec
Format profile :
Format settings, CABAC : Yes
Format settings, ReFrames : 16 frames
Muxing mode : Container profile=Unknown@3.2
Codec ID : V_MPEG4/ISO/AVC
Duration : 2h 47mn
Nominal bit rate : 1 651 Kbps
Width : 720 pixels
Height : 432 pixels
Display aspect ratio : 2.40:1
Original display aspect ratio : 1.667
Frame rate : 25.000 fps
Resolution : 24 bits
Colorimetry : 4:2:0
Scan type : Progressive
Bits/(Pixel*Frame) : 0.212
Title : x264: 720x432@1050x432 25fps ~1651kbps
Writing library : x264 core 65 r1040kMod 1591275
Encoding settings : cabac=1 / ref=16 / deblock=1:-3:0 / analyse=0x3:0x133 / me=umh / subme=7 / psy_rd=1.0:0.0 / mixed_ref=1 / me_range=32 / chroma_me=0 / trellis=2 / 8x8dct=1 / cqm=0 / deadzone=21,11 / chroma_qp_offset=10 / threads=3 / thread_queue=3 / nr=0 / decimate=0 / mbaff=0 / bframes=16 / b_pyramid=1 / b_adapt=2 / b_bias=0 / direct=3 / wpredb=1 / keyint=250 / keyint_min=25 / scenecut=40(pre) / rc=2pass / bitrate=1651 / ratetol=1.0 / qcomp=0.60 / qpmin=10 / qpmax=51 / qpstep=4 / cplxblur=20.0 / qblur=0.5 / ip_ratio=1.40 / pb_ratio=1.30 / aq=1:1.00
Language : Italian
Audio #2
ID : 2
Format : AAC
Format/Info : Advanced Audio Codec
Format version : Version 4
Format profile : LC
Format settings, SBR : No
Codec ID : A_AAC
Duration : 2h 47mn
Channel(s) : 2 channels
Channel positions : L R
Sampling rate : 48.0 KHz
Resolution : 16 bits
Title : Russian: AAC-LC 48KHz stereo 73Kbps
Language : Russian
Audio #3
ID : 3
Format : AAC
Format/Info : Advanced Audio Codec
Format version : Version 4
Format profile : LC
Format settings, SBR : No
Codec ID : A_AAC
Duration : 2h 47mn
Channel(s) : 2 channels
Channel positions : L R
Sampling rate : 48.0 KHz
Resolution : 16 bits
Title : Italian: AAC-LC 48KHz stereo 60Kbps
Language : Italian
Text #4
ID : 4
Format : VobSub
Codec ID : S_VOBSUB
Codec ID/Info : The same subtitle format used on DVDs
Title : Russian: Subtitles
Language : Russian
Text #5
ID : 5
Format : UTF-8
Codec ID : S_TEXT/UTF8
Codec ID/Info : UTF-8 Plain Text
Title : English: Subtitles
Language : English


Кадры из фильма





Я целую... ты целуешь / Io bacio... tu baci




Перевод:Профессиональный (одноголосый), субтитры: отсутствуют
Формат:DVDRip, AVI, DivX, MP3
Страна:Италия
Жанр:Музыкальная комедия
Продолжительность:01:28:28
Режиссер:Пьеро Виварелли / Piero Vivarelli
Год выпуска:1961

В ролях:Мина Маззини / Mina, Тони Даллара / Tony Dallara, Умберто Орсини / Umberto Orsini, Джими Фонтана / Jimmy Fontana, Адриано Челентано / Adriano Celentano, Пеппино Ди Капри / Peppino Di Capri, Джино Сантерколе / Gino Santercole, Нино Нини / Nino Nini, Тони Рени / Tony Renis

Описание: Строительному магнату мешает маленькая харчевня - любимое место встреч музыкантов. Из-за нежелания владельца продавать её задерживается освоение нового микрорайона. Молодая журналистка (Мина Маззини) - дочь богача-стротеля, решает помочь отцу и приходит в харчевню. Как и положено в комедии - все получается наоборот: дочь, очарованная музыкантами и их песнями, помогает им против своего отца.

Рейтинг Кинопоиск.RU: 6.000
Рейтинг IMDB: 6.3/10

Видео:720x428 (1.68:1), 25 fps, DivX Codec 5.x or 6.x ~1199 kbps avg, 0.16 bit/pixel
Аудио:44.100 kHz, MPEG Layer 3, 2 ch, ~128.00 kbps avg

Кадры из фильма



Монах из Монцы / Il monaco di Monza




Перевод:Любительский (одноголосый закадровый), субтитры: отсутствуют
Формат:DVDRip, AVI, DivX, MP3
Страна:Италия
Жанр:плутовская комедия, приключения
Режиссер:Серджо Корбуччи
Продолжительность:01:40:53
Год выпуска:1963

В ролях:Тото / Totò («монах из Монцы»), Нино Таранто / Nino Taranto (маркиз), Эрминио Макарио / Erminio Macario (крестьянин, «полумонах», друг «монаха из Монцы»), Лиза Гастони / Lisa Gastoni (пассия маркиза), Мойра Орфей / Moira Orfei, Джакомо Фурия / Giacomo Furia, Фиоренцо Фиорентини / Fiorenzo Fiorentini, Дани Парис / Dany París, Адриано Челентано

Описание: В итальянском городке Монца (Monza) живёт нерадивый сапожник, вдовец Паскуале Чиччиакальда (Pasquale Cicciacalda, роль Totò / Тото) с 12 детьми. Дела идут всё хуже и хуже, к тому же Паскуале повздорил со своим компаньоном, и тот увёз колодку для левой ноги, а тут ещё и на голову свалился офицер, грозящий выселить из города за неуплату налогов, и Паскуале, что называется, загнул ему, как сапожник, всё, что о нём думает, чем нажил ещё одного могущественного недоброжелателя. …Согласно традиции, в Италии принято всегда подавать монахам, даже если ты беден, как церковная мышь, но, если у тебя хоть что-то есть, ты просто должен поделиться. Как-то увидев, как кучеряво живут монахи за счёт подаяния, сапожник Паскуале собирает всех своих 12 детей и сбегает из Монцы, ища дом какого-нибудь зажиточного и щедрого маркиза. Повстречав по пути бедствующего крестьянина (роль Эрминио Макарио / Erminio Macario), Паскуале берёт его с собой, даровав чин «полумонаха» и тем самым обретя простоватого, но надёжного друга. Крестьянин проводит братию к замок маркиза, в котором и разворачиваются основные события — Паскуале оказывается втянутым в интригу между маркизом (роль Нино Таранто / Nino Taranto) и супругой (роль Лизы Гастони / Lisa Gastoni) его покойного брата: маркиз желает, чтобы Паскуале, как монах, «зарегистрировал брак», иначе грозит смертными карами, а его избранница ждёт своего испанского принца на белом коне и потому, чтобы оттянуть время, предлагает сапожнику большую сумму, чтобы он не стал освящать брак.

Роль Фальшивый монах.

Рейтинг Кинопоиск.RU: 9.000
Рейтинг IMDB: 6.8/10

Видео:720x384 (1.88:1), 25 fps, DivX Codec 5.2.1 beta ~893 kbps avg, 0.13 bit/pixel
Аудио 1:Русский 48 kHz, MPEG Layer 3, 2 ch, ~256.00 kbps avg [Любительский (одноголосый закадровый)]
Аудио 2:Русский 48 kHz, MPEG Layer 3, 2 ch, ~256.00 kbps avg [Любительский (одноголосый закадровый)(VHSRip-звук)]
Аудио 3:Итальянский 22.050 kHz, MPEG Layer 3, 2 ch, ~64.00 kbps avg [Оригинал]

Кадры из фильма



Какой-то странный тип / Strano tipo, Uno




Перевод:Профессиональный (одноголосый), субтитры: отсутствуют
Формат:DVDRip, AVI, DivX, MP3
Страна:Италия
Жанр:Комедия
Продолжительность:01:35:26
Режиссер:Лючио Фильчи/Lucio Fulci
Год выпуска:1963

В ролях:Адриано Челентано, Клаудия Мори, Донателла Турри, Луиджи Павесе, Карло Кампанини, Джакомо Фуриа, Джанни Агус, Нино Таранто, Эрминио Макарио, Розальба Нери, Франко Джакобини, Раффаэлла Де Каролис

Описание: Актер Челентано в этой музыкальной, эксцентрической комедии маэстро ужасов Лучо Фульчи снялся в роли популярного рок-певца Челентано, а второе название фильма — "Rock n Roll Black & White". 1960-е годы, море, музыка, луна, а снят фильм в черно-белом изображении, что, как вы сами убедитесь, если посмотрите фильм, вполне оправдано. Адриано, его импрессарио и музыканты едут на гастроли, но в одном городке лирическая прогулка певца у моря была прервана выстрелами. Местная красавица (Клаудиа Мори) потребовала, чтобы он стал ее мужем и законным отцом их ребенка. Комедия насыщена смешными ситуациями, солеными шутками, драками, но самое главное — это то, что Челентано, столь популярный и в нашей стране, поет!

Роль Пеппино

Рейтинг Кинопоиск.RU: 7.684
Рейтинг IMDB: 5.5/10

Видео:588x344 (1.71:1), 25 fps, DivX Codec 5.05 ~1024 kbps avg, 0.20 bit/pixel
Аудио:48 kHz, MPEG Layer 3, 2 ch, ~128.00 kbps avg

Кадры из фильма



Суперограбление в Милане / Super rapina a Milano




Перевод:Профессиональный (многоголосый), субтитры: отсутствуют
Формат:DVDRip, MKV, H264, AC3
Жанр:Комедия
Режиссер:Адриано Челентано / Adriano Celentano
Страна:Италия
Продолжительность:01:41:31
Год выхода:1964

В ролях:Адриано Челентано / Adriano Celentano, Клаудиа Мори / Claudia Mori, Джино Сантерколе / Gino Santercole, Дон Баки / Don Backy, Детто Мариано / Detto Mariano, Мики дель Прете / Miky Del Prete , Витторио Сальветти / Vittorio Salvetti, Милена Беттини / Milena Bettini

Описание: Банда налётчиков во главе с Сержио (Адриано Челентано) грабят банк Милана на сумму больше миллиарда лир, после чего переодевшись в монашеские обряды скрываются в монастыре.....

Роль Серджио

Рейтинг Кинопоиск.RU: 6.860
Рейтинг IMDB: 6.7/10



General
Complete name : Super rapina a Milano.mkv
Format : Matroska
File size : 1.96 GiB
Duration : 1h 41mn
Overall bit rate : 2 768 Kbps
Encoded date : UTC 2010-08-17 20:34:50
Writing application : mkvmerge v4.1.1 ('Bouncin' Back') ñáîðêà îò Jul3 2010 22:54:08
Writing library : libebml v1.0.0 + libmatroska v1.0.0
Video #1
ID : 1
Format : AVC
Format/Info : Advanced Video Codec
Format profile :
Format settings, CABAC : Yes
Format settings, ReFrames : 5 frames
Muxing mode : Container profile=Unknown@3.0
Codec ID : V_MPEG4/ISO/AVC
Duration : 1h 41mn
Bit rate : 2 000 Kbps
Width : 720 pixels
Height : 304 pixels
Display aspect ratio : 2.35:1
Frame rate : 25.000 fps
Color space : YUV
Chroma subsampling : 4:2:0
Bit depth : 8 bits
Scan type : Progressive
Bits/(Pixel*Frame) : 0.365
Stream size : 1.38 GiB (70%)
Writing library : x264 core 75 r1251kMod e553a4c
Encoding settings : cabac=1 / ref=5 / deblock=1:-1:-1 / analyse=0x3:0x133 / me=umh / subme=7 / psy=1 / psy_rd=1.0:0.0 / mixed_ref=1 / me_range=16 / chroma_me=1 / trellis=2 / 8x8dct=1 / cqm=0 / deadzone=21,11 / chroma_qp_offset=-2 / threads=3 / nr=0 / decimate=1 / mbaff=0 / bframes=3 / b_pyramid=0 / b_adapt=2 / b_bias=0 / direct=3 / wpredb=1 / keyint=250 / keyint_min=25 / scenecut=40 / rc_lookahead=40 / rc=2pass / mbtree=1 / bitrate=2000 / ratetol=1.0 / qcomp=0.60 / qpmin=10 / qpmax=51 / qpstep=4 / cplxblur=20.0 / qblur=0.5 / ip_ratio=1.40 / aq=1:1.00
Audio #2
ID : 2
Format : AC-3
Format/Info : Audio Coding 3
Mode extension : CM (complete main)
Codec ID : A_AC3
Duration : 1h 41mn
Bit rate mode : Constant
Bit rate : 192 Kbps
Channel(s) : 2 channels
Channel positions : Front: L R
Sampling rate : 48.0 KHz
Stream size : 139 MiB (7%)
Title : Ïðîôåññèîíàëüíûé (ìíîãîãîëîñûé) - ÒÊ «TÂ Öåíòð»
Language : Russian
Audio #3
ID : 3
Format : AC-3
Format/Info : Audio Coding 3
Mode extension : CM (complete main)
Codec ID : A_AC3
Duration : 1h 41mn
Bit rate mode : Constant
Bit rate : 192 Kbps
Channel(s) : 2 channels
Channel positions : Front: L R
Sampling rate : 48.0 KHz
Stream size : 139 MiB (7%)
Title : Ïðîôåññèîíàëüíûé (äâóõãîëîñûé)
Language : Russian
Audio #4
ID : 4
Format : AC-3
Format/Info : Audio Coding 3
Mode extension : CM (complete main)
Codec ID : A_AC3
Duration : 1h 41mn
Bit rate mode : Constant
Bit rate : 192 Kbps
Channel(s) : 2 channels
Channel positions : Front: L R
Sampling rate : 48.0 KHz
Stream size : 139 MiB (7%)
Title : Ïðîôåññèîíàëüíûé (îäíîãîëîñûé) - Ñåðãåé Êîçëîâ
Language : Russian
Audio #5
ID : 5
Format : AC-3
Format/Info : Audio Coding 3
Mode extension : CM (complete main)
Codec ID : A_AC3
Duration : 1h 41mn
Bit rate mode : Constant
Bit rate : 192 Kbps
Channel(s) : 2 channels
Channel positions : Front: L R
Sampling rate : 48.0 KHz
Stream size : 139 MiB (7%)
Language : Italian


Видео:720x304, 25.00 fps, x264 core 75, 2000 Kbps avg, 0.365 bit/pixel
Аудио 1:РусскийAC3, 2/0ch, 48.0 KHz, 192Kbps [Профессиональный (многоголосый)]
Аудио 2:РусскийAC3, 2/0ch, 48.0 KHz, 192Kbps [Профессиональный (двухголосый)]
Аудио 3:РусскийAC3, 2/0ch, 48.0 KHz, 192Kbps [Профессиональный (одноголосый) - Сергей Козлов]
Аудио 4:Итальянский AC3, 2/0ch, 48.0 KHz, 192Kbps [Оригинал]

Кадры из фильма





Серафино / Serafino




Перевод:Профессиональный (полное дублирование), субтитры: отсутствуют
Формат:DVDRip, MKV, H264, AC3
Жанр:Комедия
Режиссер:Пьетро Джерми / Pietro Germi
Страна:Италия
Продолжительность:01:28:00
Год выхода:1969

В ролях:Адриано Челентано, Оттавия Пикколо, Саро Урци

Описание: Важнейшим событием в карьере Адриано Челентано было участие в фильме режиссера Пьетро Джерми Серафино. Челентано создал близкий своему имиджу образ простого деревенского парня, прячущего под напускной дурашливостью, неотесанностью природный острый ум, насмешливую иронию, благородство. Получив наследство, Серафино (Адриано Челентано) раздает деньги односельчанам, спускает с откоса автомобиль, приводит в дом не расчетливую невесту, зарящуюся на наследство, а легкомысленную женщину с уймой детишек...

Роль Серафино Фиорин

Рейтинг Кинопоиск.RU: 6.952
Рейтинг IMDB: 6.3/10



General
Complete name : Serafino.mkv
Format : Matroska
File size : 1.39 GiB
Duration : 1h 28mn
Overall bit rate : 2 243 Kbps
Encoded date : UTC 2010-08-16 07:54:52
Writing application : mkvmerge v2.9.8 ('C'est le bon') built on Aug 24 2009 17:34:03
Writing library : libebml v0.7.7 + libmatroska v0.8.1
Video #1
ID : 1
Format : AVC
Format/Info : Advanced Video Codec
Format profile :
Format settings, CABAC : Yes
Format settings, ReFrames : 5 frames
Format settings, GOP : N=1
Muxing mode : Container profile=Unknown@3.0
Codec ID : V_MPEG4/ISO/AVC
Duration : 1h 28mn
Bit rate : 1 985 Kbps
Width : 704 pixels
Height : 544 pixels
Display aspect ratio : 1.294
Frame rate : 25.000 fps
Color space : YUV
Chroma subsampling : 4:2:0
Bit depth : 8 bits
Scan type : Progressive
Bits/(Pixel*Frame) : 0.207
Stream size : 1.20 GiB (87%)
Writing library : x264 core 75 r1251kMod e553a4c
Encoding settings : cabac=1 / ref=5 / deblock=1:-1:-1 / analyse=0x3:0x133 / me=umh / subme=7 / psy=1 / psy_rd=1.0:0.0 / mixed_ref=1 / me_range=16 / chroma_me=1 / trellis=2 / 8x8dct=1 / cqm=0 / deadzone=21,11 / chroma_qp_offset=-2 / threads=3 / nr=0 / decimate=1 / mbaff=0 / bframes=3 / b_pyramid=0 / b_adapt=2 / b_bias=0 / direct=3 / wpredb=1 / keyint=250 / keyint_min=25 / scenecut=40 / rc_lookahead=40 / rc=2pass / mbtree=1 / bitrate=1985 / ratetol=1.0 / qcomp=0.60 / qpmin=10 / qpmax=51 / qpstep=4 / cplxblur=20.0 / qblur=0.5 / ip_ratio=1.40 / aq=1:1.00
Audio #2
ID : 2
Format : AC-3
Format/Info : Audio Coding 3
Mode extension : CM (complete main)
Codec ID : A_AC3
Duration : 1h 28mn
Bit rate mode : Constant
Bit rate : 256 Kbps
Channel(s) : 2 channels
Channel positions : Front: L R
Sampling rate : 48.0 KHz
Stream size : 162 MiB (11%)


Видео:x264 core 75, 704x544, 1985 Kbps, 25.00fps, 0.207 bit/pixel
Аудио:AC3, 48000Hz stereo, 2 ch, 256Kbps

Кадры из фильма





История любви и кинжала / Er pi storia d'amore e di coltello




Перевод:Профессиональный (многоголосый, закадровый), субтитры: отсутствуют
Формат:DVDRip, MKV, H264, AC3
Жанр:Комедия
Режиссер:Серджо Корбуччи
Страна:Италия
Продолжительность:01:40:27
Год выхода:1971

В ролях:Адриано Челентано, Клаудиа Мори, Фиорензо Фиорентини, Витторио Каприоли

Описание: Крутой бандит Нино, держащий в страхе целый квартал Рима, возвращается из тюрьмы. Он узнает, что за его невестой, красавицей Розой, ухаживает мясник Агусто. Такой наглости Нино не мог стерпеть… Но у покойника остались три брата. Теперь кровавой вендетты не избежать.

Роль Нино

Рейтинг Кинопоиск.RU: 5.6/10
Рейтинг IMDB: 6.822



General
Complete name : Er pi storia d'amore e di coltello.mkv
Format : Matroska
File size : 1.79 GiB
Duration : 1h 41mn
Overall bit rate : 2 518 Kbps
Encoded date : UTC 2009-08-09 11:45:24
Writing application : mkvmerge v2.2.0 ('Turn It On Again') built on Mar4 2008 13:20:25
Writing library : libebml v0.7.7 + libmatroska v0.8.1
Video #1
ID : 1
Format : AVC
Format/Info : Advanced Video Codec
Format profile :
Format settings, CABAC : Yes
Format settings, ReFrames : 2 frames
Muxing mode : Container profile=Unknown@4.1
Codec ID : V_MPEG4/ISO/AVC
Duration : 1h 41mn
Bit rate : 2 200 Kbps
Width : 720 pixels
Height : 432 pixels
Display aspect ratio : 1.667
Frame rate : 25.000 fps
Color space : YUV
Chroma subsampling : 4:2:0
Bit depth : 8 bits
Scan type : Progressive
Bits/(Pixel*Frame) : 0.283
Stream size : 1.52 GiB (85%)
Title : ice
Writing library : x264 core 65 r999kMod cc51047
Encoding settings : cabac=1 / ref=1 / deblock=0:0:0 / analyse=0x3:0x133 / me=hex / subme=6 / psy_rd=1.0:0.0 / mixed_ref=0 / me_range=16 / chroma_me=1 / trellis=0 / 8x8dct=1 / cqm=0 / deadzone=21,11 / chroma_qp_offset=-2 / threads=2 / thread_queue=2 / nr=0 / decimate=1 / mbaff=0 / bframes=3 / b_pyramid=0 / b_adapt=1 / b_bias=0 / direct=3 / wpredb=0 / keyint=250 / keyint_min=25 / scenecut=40(pre) / rc=abr / bitrate=2200 / ratetol=1.0 / qcomp=0.60 / qpmin=10 / qpmax=51 / qpstep=4 / ip_ratio=1.40 / pb_ratio=1.30 / aq=1:1.00
Language : Italian
Audio #2
ID : 2
Format : AC-3
Format/Info : Audio Coding 3
Mode extension : CM (complete main)
Codec ID : A_AC3
Duration : 1h 41mn
Bit rate mode : Constant
Bit rate : 192 Kbps
Channel(s) : 2 channels
Channel positions : Front: L R
Sampling rate : 48.0 KHz
Stream size : 140 MiB (8%)
Language : Russian
Audio #3
ID : 3
Format : AC-3
Format/Info : Audio Coding 3
Mode extension : CM (complete main)
Codec ID : A_AC3
Duration : 1h 41mn
Bit rate mode : Constant
Bit rate : 128 Kbps
Channel(s) : 2 channels
Channel positions : Front: L R
Sampling rate : 48.0 KHz
Stream size : 93.1 MiB (5%)
Language : Italian


Видео:720x432, 25 fps, x264 core 65, 2200 Kbps, 0.283 bit/pixel
Аудио 1:РусскийAC3, 2/0ch, 192 kbps 48 kHz [Профессиональный (многоголосый, закадровый)]
Аудио 2:Итальянский AC3, 2/0ch, 128 kbps 48 kHz [Оригинал]

Кадры из фильма





Белый, красный и... / Bianco, rosso e...




Перевод:Профессиональный (многоголосый, закадровый), субтитры: отсутствуют
Формат:DVDRip, MKV, H264, AC3
Жанр:Драма
Режиссер:Альберто Латтуада
Страна:Италия
Продолжительность:01:36:12
Год выхода:1972

В ролях:Адриано Челентано, Софи Лорен, Фернандо Рей

Описание: Даже когда в мире кипят невероятные политические и социальные страсти, рушится привычный уклад жизни, простые и естественные человеческие чувства всегда выходят на первый план. И вот уже убежденный коммунист, закоренелый атеист, а также бабник и балагур Аннибале прекращает богохульствовать, когда сестра Джермана закрывает ему рот совсем не невинным поцелуем...
Основная идея фильма состоит в том, что надо стремиться к взаимной толерантности и, сохраняя верность собственным убеждениям, стараться, чтобы люди с противоположными принципами могли сосуществовать.


Роль Анибаль Пецци

Рейтинг Кинопоиск.RU: 7.828
Рейтинг IMDB: 4.0/10
Рейтинг MPAA: R



General
Complete name : Bianco, rosso e.mkv
Format : Matroska
File size : 1.63 GiB
Duration : 1h 31mn
Overall bit rate : 2 559 Kbps
Encoded date : UTC 2009-08-10 19:23:54
Writing application : mkvmerge v2.2.0 ('Turn It On Again') built on Mar4 2008 13:20:25
Writing library : libebml v0.7.7 + libmatroska v0.8.1
Video #1
ID : 1
Format : AVC
Format/Info : Advanced Video Codec
Format profile :
Format settings, CABAC : Yes
Format settings, ReFrames : 2 frames
Muxing mode : Container profile=Unknown@4.1
Codec ID : V_MPEG4/ISO/AVC
Duration : 1h 31mn
Bit rate : 2 300 Kbps
Width : 704 pixels
Height : 400 pixels
Display aspect ratio : 16:9
Frame rate : 25.000 fps
Color space : YUV
Chroma subsampling : 4:2:0
Bit depth : 8 bits
Scan type : Progressive
Bits/(Pixel*Frame) : 0.327
Stream size : 1.43 GiB (88%)
Title : ice
Writing library : x264 core 65 r999kMod cc51047
Encoding settings : cabac=1 / ref=1 / deblock=0:0:0 / analyse=0x3:0x133 / me=hex / subme=6 / psy_rd=1.0:0.0 / mixed_ref=0 / me_range=16 / chroma_me=1 / trellis=0 / 8x8dct=1 / cqm=0 / deadzone=21,11 / chroma_qp_offset=-2 / threads=2 / thread_queue=2 / nr=0 / decimate=1 / mbaff=0 / bframes=3 / b_pyramid=0 / b_adapt=1 / b_bias=0 / direct=3 / wpredb=0 / keyint=250 / keyint_min=25 / scenecut=40(pre) / rc=abr / bitrate=2300 / ratetol=1.0 / qcomp=0.60 / qpmin=10 / qpmax=51 / qpstep=4 / ip_ratio=1.40 / pb_ratio=1.30 / aq=1:1.00
Language : Italian
Audio #2
ID : 2
Format : AC-3
Format/Info : Audio Coding 3
Mode extension : CM (complete main)
Codec ID : A_AC3
Duration : 1h 31mn
Bit rate mode : Constant
Bit rate : 256 Kbps
Channel(s) : 2 channels
Channel positions : Front: L R
Sampling rate : 48.0 KHz
Stream size : 167 MiB (10%)
Language : Russian


Видео:704x400, 25 fps, 2300 Kbps, x264 core 65, 0.327 bit/pixel
Аудио:Русский 256 kbps, AC3, 2 ch, 48 kHz [Профессиональный (многоголосый, закадровый)]

Кадры из фильма





Эмигрант / L'emigrante




Перевод:Любительский (одноголосый), субтитры: отсутствуют
Формат:VHSRip, AVI, XviD, AC3
Страна:Италия, Испания, Германия
Жанр:Комедия, драма
Продолжительность:01:51:12
Режиссер:Паскуале Феста Кампаниле
Год выхода:1973

В ролях:Адриано Челентано, Клаудия Мори, Сибил Дэннинг, Джиджи Редер, Лино Тоффоло

Описание: Молодой неаполитанец Пеппино Кавалло ищет свое место под солнцем. И столь же неутомимо ищет родного отца. Однажды Пеппино решает уехать в Америку. На корабле он знакомится с очаровательной дамочкой Розитой Флорес...

Роль Пеппино Кавальо

Рейтинг Кинопоиск.RU: 7.105
Рейтинг IMDB: 5.0/10

Видео:608x368 (1.65:1), 25 fps, XviD build 47 ~1517 kbps avg, 0.27 bit/pixel
Аудио:48 kHz, AC3 Dolby Digital, 2/0 (L,R) ch, ~256.00 kbps avg

Кадры из фильма



Пять дней в Милане / Le cinque giornate




Перевод:Профессиональный (двухголосый), субтитры: отсутствуют
Формат:DVDRip, MKV, H264, AC3
Жанр:Драма, Война, Комедия
Режиссер:Дарио Ардженто
Страна:Италия
Продолжительность:01:56:06
Год выхода:1973

В ролях:Адриано Челентано / Adriano Celentano, Энцо Черузико / Enzo Cerusico, Серджио Грациани / Sergio Graziani, Луиза Де Сантис / Luisa De Santis, Глауко Онорато / Glauco Onorato, Уго Болонья / Ugo Bologna, Сальваторе Баккаро / Salvatore Baccaro, Том Феллеги / Tom Felleghy

Описание: Действие фильма происходит в 19 веке (1848 год) во время борьбы патриотических сил Италии против австрийского владычества. Случайный снаряд пробивает стену тюрьмы, чем успевает воспользоваться вор и бандит Кайнаццо (Адриано Челентано). Пока он сидел в тюрьме, Италия превратилась в полигон для политических раздоров и баталий. Ничего не понимая в политике, на которую ему глубоко наплевать, Кайнаццо влипает в целую серию смешных, но часто страшных приключений вместе с пекарем Ромоло (Энцо Черузико) из Рима, чья пекарня была разрушена снарядом.

Сатира, фарс, удачные находки, импонирующий цинизм и эксцентрика наполняют картину Ардженто. Очень забавны диалоги о роли народа при дележе власти между политиканами и вождями всех мастей, рвущихся управлять этим народом. "Нас надули", - вот последний крик Кайнаццо прямо в камеру.


Роль Каинаццо

Рейтинг Кинопоиск.RU: 6.885
Рейтинг IMDB: 5.7/10



General
Complete name : Le cinque giornate.mkv
Format : Matroska
File size : 2.30 GiB
Duration : 1h 56mn
Overall bit rate : 2 839 Kbps
Encoded date : UTC 2009-08-07 14:28:30
Writing application : mkvmerge v2.2.0 ('Turn It On Again') built on Mar4 2008 13:20:25
Writing library : libebml v0.7.7 + libmatroska v0.8.1
Video #1
ID : 1
Format : AVC
Format/Info : Advanced Video Codec
Format profile :
Format settings, CABAC : Yes
Format settings, ReFrames : 2 frames
Muxing mode : Container profile=Unknown@4.1
Codec ID : V_MPEG4/ISO/AVC
Duration : 1h 56mn
Bit rate : 2 200 Kbps
Width : 1 024 pixels
Height : 424 pixels
Display aspect ratio : 2.40:1
Frame rate : 25.000 fps
Color space : YUV
Chroma subsampling : 4:2:0
Bit depth : 8 bits
Scan type : Progressive
Bits/(Pixel*Frame) : 0.203
Stream size : 1.74 GiB (75%)
Title : ice
Writing library : x264 core 65 r999kMod cc51047
Encoding settings : cabac=1 / ref=1 / deblock=0:0:0 / analyse=0x3:0x133 / me=hex / subme=6 / psy_rd=1.0:0.0 / mixed_ref=0 / me_range=16 / chroma_me=1 / trellis=0 / 8x8dct=1 / cqm=0 / deadzone=21,11 / chroma_qp_offset=-2 / threads=2 / thread_queue=2 / nr=0 / decimate=1 / mbaff=0 / bframes=3 / b_pyramid=0 / b_adapt=1 / b_bias=0 / direct=3 / wpredb=0 / keyint=250 / keyint_min=25 / scenecut=40(pre) / rc=abr / bitrate=2200 / ratetol=1.0 / qcomp=0.60 / qpmin=10 / qpmax=51 / qpstep=4 / ip_ratio=1.40 / pb_ratio=1.30 / aq=1:1.00
Language : Italian
Audio #2
ID : 2
Format : AC-3
Format/Info : Audio Coding 3
Mode extension : CM (complete main)
Codec ID : A_AC3
Duration : 1h 56mn
Bit rate mode : Constant
Bit rate : 192 Kbps
Channel(s) : 2 channels
Channel positions : Front: L R
Sampling rate : 48.0 KHz
Stream size : 159 MiB (7%)
Language : Russian
Audio #3
ID : 3
Format : AC-3
Format/Info : Audio Coding 3
Mode extension : CM (complete main)
Codec ID : A_AC3
Duration : 1h 56mn
Bit rate mode : Constant
Bit rate : 448 Kbps
Channel(s) : 6 channels
Channel positions : Front: L C R, Side: L R, LFE
Sampling rate : 48.0 KHz
Stream size : 372 MiB (16%)
Language : Italian


Видео:720х424, 25 fps, x264 core 65, 2200 Kbps, 0.203 bit/pixel
Аудио 1:Русский 2 channels, AC3, 192 kbps 48 kHz [Профессиональный (двухголосый)]
Аудио 2:Итальянский 6 channels, AC3, 448 kbps 48 kHz [Оригинал]

Кадры из фильма





Ругантино / Rugantino




Перевод:Профессиональный (многоголосый закадровый), субтитры: отсутствуют
Формат:DVDRip, MKV, H264, AC3
Жанр:Комедия
Режиссер:Паскуале Феста Кампаниле / Pasquale Festa Campanile
Страна:Италия
Продолжительность:01:45:43
Год выхода:1973

В ролях:Адриано Челентано, Клаудия Мори, Пиппо Франко, Риккардо Гарроне, Сандро Мерли, Клаудия Мори

Описание: В Риме живет красивая девушка Розина. Ее муж силен, как бык, и ревнив, как шекспировский Отелло. Однажды супруг Розины убивает богатого аристократа, который пел его жене серенады, и теперь вынужден скрываться от правосудия. Именно с этого момента на авансцену выходит неунывающий Ругантино. Знакомьтесь! Ругантино – отличный парень, балагур, остряк и любитель женщин. Специализируется он на том, что с легкостью соблазняет богатых замужних синьор. В этой "профессии" он достиг совершенства. На этот раз герой заключает со своими друзьями пари: он должен соблазнить красавицу Розину, которая считается самой гордой и недоступной женщиной в городе. Однако дело осложняется тем, что Ругантино неожиданно влюбляется в девушку...

Роль Ругантино

Рейтинг Кинопоиск.RU: 7.364
Рейтинг IMDB: 5.2/10



General
Complete name : Rugantino.mkv
Format : Matroska
File size : 1.88 GiB
Duration : 1h 45mn
Overall bit rate : 2 541 Kbps
Encoded date : UTC 2010-08-15 14:42:34
Writing application : mkvmerge v4.1.1 ('Bouncin' Back') ñáîðêà îò Jul3 2010 22:54:08
Writing library : libebml v1.0.0 + libmatroska v1.0.0
Video #1
ID : 1
Format : AVC
Format/Info : Advanced Video Codec
Format profile :
Format settings, CABAC : Yes
Format settings, ReFrames : 5 frames
Format settings, GOP : M=4, N=13
Muxing mode : Container profile=Unknown@3.0
Codec ID : V_MPEG4/ISO/AVC
Duration : 1h 45mn
Bit rate : 1 900 Kbps
Width : 720 pixels
Height : 320 pixels
Display aspect ratio : 2.25:1
Frame rate : 25.000 fps
Color space : YUV
Chroma subsampling : 4:2:0
Bit depth : 8 bits
Scan type : Progressive
Bits/(Pixel*Frame) : 0.330
Stream size : 1.37 GiB (73%)
Writing library : x264 core 75 r1251kMod e553a4c
Encoding settings : cabac=1 / ref=5 / deblock=1:-1:-1 / analyse=0x3:0x133 / me=umh / subme=7 / psy=1 / psy_rd=1.0:0.0 / mixed_ref=1 / me_range=16 / chroma_me=1 / trellis=2 / 8x8dct=1 / cqm=0 / deadzone=21,11 / chroma_qp_offset=-2 / threads=3 / nr=0 / decimate=1 / mbaff=0 / bframes=3 / b_pyramid=0 / b_adapt=2 / b_bias=0 / direct=3 / wpredb=1 / keyint=250 / keyint_min=25 / scenecut=40 / rc_lookahead=40 / rc=2pass / mbtree=1 / bitrate=1900 / ratetol=1.0 / qcomp=0.60 / qpmin=10 / qpmax=51 / qpstep=4 / cplxblur=20.0 / qblur=0.5 / ip_ratio=1.40 / aq=1:1.00
Audio #2
ID : 2
Format : AC-3
Format/Info : Audio Coding 3
Mode extension : CM (complete main)
Codec ID : A_AC3
Duration : 1h 45mn
Bit rate mode : Constant
Bit rate : 192 Kbps
Channel(s) : 2 channels
Channel positions : Front: L R
Sampling rate : 48.0 KHz
Stream size : 145 MiB (8%)
Language : Russian
Audio #3
ID : 3
Format : AC-3
Format/Info : Audio Coding 3
Mode extension : CM (complete main)
Codec ID : A_AC3
Duration : 1h 45mn
Bit rate mode : Constant
Bit rate : 448 Kbps
Channel(s) : 6 channels
Channel positions : Front: L C R, Side: L R, LFE
Sampling rate : 48.0 KHz
Stream size : 339 MiB (18%)
Language : Italian


Видео:x264 core 75, 720x320, 1900 Kbps, 25.00fps, 0.330 bit/pixel
Аудио 1:Русский Dolby AC3, 2 ch, 48.0 KHz, 192 Kbps [Профессиональный (многоголосый закадровый)]
Аудио 2:Итальянский Dolby AC3, 6 ch, 48.0 KHz, 448 Kbps [Оригинал]

Кадры из фильма





Под каким-то знаком / Di che segno sei?




Перевод:Любительский (одноголосый), субтитры: отсутствуют
Формат:TVRip, AVI, XviD, MP3
Страна:Италия
Продолжительность:02:09:12
Режиссер:Серджио Корбуччи
Год выпуска:1975

В ролях:Паоло Вилладжо, Адриано Челентано, Марианджела Мелато, Ренато Поццетто, Джованна Ралли, Альберто Сорди, Лучано Сальче, Уго Болонья, Илеана Карати, Массимо Болди, Марилда Донья

Описание: Фильм из четырех новелл: "Вода", "Воздух", "Земля", "Огонь": летчик решает поменять мужской пол на женский; танцевальный конкурс; один день каменщика в роли миллионера; назойливый телохранитель.

Роль Альфредо

Рейтинг Кинопоиск.RU: 7.571
Рейтинг IMDB: 5.2/10

Видео:640x368 (1.74:1), 25 fps, XviD Final 1.1 (build 41) ~623 kbps avg, 0.11 bit/pixel
Аудио:48 kHz, MPEG Layer 3, 2 ch, ~128.00 kbps avg

Кадры из фильма



Юппи Ду / Yuppi Du




Перевод:Авторский (Никита Козырев), субтитры: отсутствуют
Формат:DVDRip, AVI, DivX, MP3
Страна:Италия
Жанр:драма, мюзикл, комедия
Продолжительность:01:45:03
Режиссер:Адриано Челентано
Год выпуска:1975

В ролях:Адриано Челентано, Клаудиа Мори, Шарлотта Ремплинг, Джино Сантерколе, Розалинда Челентано

Описание: Имитируя самоубийство, Сильвия пытается рассторгнуть брак с мужем Феличе (Адриано Челентано), для того, чтобы жить с желаемым человеком. Спустя года она хочет вернуть своего сына, который был рождён в браке с Феличе. Однако Феличе к тому времени уже женился, но всё равно хочет увидеть Сильвию, так как всегда её любил и хочет жить вместе с ней и с дочкой. Однако Сильвия — женщина с очень сложным нравом.

Роль Феличе

Рейтинг Кинопоиск.RU: 8.733
Рейтинг IMDB: 5.8/10

Видео:640x368 (1.74:1), 25 fps, DivX Codec 5.x or 6.x ~1581 kbps avg, 0.27 bit/pixel
Аудио:44.100 kHz, MPEG Layer 3, 2 ch, ~191.71 kbps avg

Кадры из фильма




Благородный венецианец / Culastrisce nobile veneziano




Перевод:Профессиональный (двухголосый), субтитры: отсутствуют
Формат:DVDRip, AVI, DivX, AC3
Страна:Италия
Жанр:Комедия
Продолжительность:01:44:02
Режиссер:Флавио Могерини
Год выпуска:1976

В ролях:Марчелло Мастроянни, Лино Тоффоло, Клаудия Мори, Адриано Челентано, Флора Карабелла, Анна Мизерокки, Ольга Бизера, Андреа Аурели, Сильвано Бернабей, Никки Джентиле, Ребекка Редер

Описание: В окрестностях Венеции в собственном замке живет маркиз Лука Мария Барди. Он известен тем, что увлекается полетами на воздушном шаре, выращиванием редких сортов тюльпанов и игрой на виолончели. Целыми днями он ведет галантные беседы со своей воображаемой женой Луизой. Все знают, что жены у маркиза нет и считают его сумасшедшим. Много лет компания по торговле недвижимостью старается приобрести его дом, но маркиз утверждает, что жена против продажи. Агенты компании решают объявить маркиза сумасшедшим и купить замок с помощью тетки. Но новый друг маркиза Агустин приглашает на время визита тетки одну знакомую проститутку, которая согласилась сыграть Луизу на один вечер. Продажа дома не состоялась. Надя, увлекшись ролью маркизы, не собирается оставлять замок...

Рейтинг Кинопоиск.RU: 7.294
Рейтинг IMDB: 5.8/10

Видео:704x384 (1.83:1), 25 fps, DivX Codec 5.x or 6.x ~1680 kbps avg, 0.25 bit/pixel
Аудио:48 kHz, AC3 Dolby Digital, 2/0 (L,R) ch, ~192.00 kbps avg

Кадры из фильма





Релиз-Группа:



Вернуться к началу
 Профиль Отправить личное сообщение  
 
   Похожие торренты   Автор   Торрент   Размер 
В этой теме нет новых непрочитанных сообщений. Секс ковбои / Sex Cowboys (Адриано Джотти / Adriano Giotti) [2017г., Италия, драма, DVDRip] avo

Alfredovich

522 | 66

705.69 МБ

В этой теме нет новых непрочитанных сообщений. Амитивилль 1992: Вопрос времени / Amityville: It's About Time [ужасы, 1992] DVDRip, Avo

salma3

0 | 1

1.45 ГБ

В этой теме нет новых непрочитанных сообщений. 1992 / 1992 [01x01-10 из 10] (Джузеппе Джальярди) [2015, Драма, WEB-DL 720p | Эй Би Видео]

Dracon

0 | 1

11.71 ГБ

В этой теме нет новых непрочитанных сообщений. 1992 / 1992 [01x01-10 из 10] (Джузеппе Джальярди) [2015, Драма, WEB-DLRip | Эй Би Видео]

Dracon

18 | 83

7.31 ГБ

В этой теме нет новых непрочитанных сообщений. Slut Auditions 4 / Пробы Шлюх 4 (Mike Adriano, Evil Angel) [2017 г., Gonzo, All Sex, DVDRip]

salma3

3 | 1

3.13 ГБ

В этой теме нет новых непрочитанных сообщений. Swallowed.com Vol. 2 / Заглатывание.com Vol. 2 (Mike Adriano, Evil Angel) [2017 г., Gonzo, Blowjobs, Cumshots, Threesome, DVDRip]

salma3

16 | 5

3.34 ГБ

В этой теме нет новых непрочитанных сообщений. Drillin' Hotties 3 / Просверлить Горяченьких 3 (Mike Adriano, Evil Angel) [2017 г., Gonzo, Anal, DVDRip]

salma3

7 | 3

2.21 ГБ


Начать новую тему Ответить на тему  [ 1 сообщение ] 




Для Мосгорсуда, Роскомнадзора и рекламодателей:: mosgorsud-torrent[собачка]yandex.ru
cron