Торрент файл
скачать торрент магнет ссылка Добавлен: 18 май 2018, 16:37
Размер: 12.77 ГБ
Сидеров: 29
Личеров: 30
Статус: (salma3)
Автор

СообщениеДобавлено: 18 май 2018, 16:37 

Не в сети
Супермодератор
Аватара пользователя
Дата регистрации:
15 фев 2012, 16:44
Возраст: 28
Спасибо: 7205 / 2147
Сообщения: 65433
Год выхода: 2017
Произведено: Индия
Жанр: боевик
Режиссер: Али Аббас Зафар

В главных ролях: Салман Кхан, Катрина Каиф, Садджад Делафруз, Энгэд Беди, Пареш Раваль, Пареш Пахуджа, Кумуд Мишра, Анупурия Гоенка

О фильме: В Ираке во время вооруженного конфликта между иракской армией и террористами ранен лидер террористов Абу Усман. Его доставляют в местный госпиталь и берут в заложники индийских и пакистанских медсестер. Кроме того, со дня на день должны казнить группу американских журналистов. Когда ушедший на покой секретный агент индийской спецслужбы Тигр где-то в швейцарских Альпах голыми руками расправляется со стаей волков, родине снова нужна его помощь. Американцы согласились совершить авиаудар через неделю, поэтому у Тигра и его команды есть только 7 дней, чтобы вызволить заложников. Да и Зоя не может остаться в стороне - теперь индийские и пакистанские спецслужбы будут работать вместе.



Файл
Качество: HDRip 1080p
Видео данные: MKV, 1920x810 (2.40:1), 23.976 fps, 11300 Кбит/с
Аудио данные: AAC, 2 ch, 192 Кбит/с
Перевод: Любительский многоголосый (GreenРай Studio)
Продолжительность: 02:38:42

имеется реклама

General
Unique ID : 305108343434199742960921647510242042065 (0xE589BABFDF2CE203809589DB39D9A0D1)
Complete name : E:ГРИНРАЙTiger.Zinda.Hai.2017.P.BDRip.1080p.mkv
Format : Matroska
Format version : Version 4 / Version 2
File size : 12.8 GiB
Duration : 2 h 38 min
Overall bit rate : 11.5 Mb/s
Encoded date : UTC 2018-05-17 15:47:05
Writing application : mkvmerge v21.0.0 ('Tardigrades Will Inherit The Earth') 64-bit
Writing library : libebml v1.3.5 + libmatroska v1.4.8
Video
ID : 1
Format : AVC
Format/Info : Advanced Video Codec
Format profile : High@L4.1
Format settings : CABAC / 1 Ref Frames
Format settings, CABAC : Yes
Format settings, RefFrames : 1 frame
Format settings, GOP : M=1, N=30
Codec ID : V_MPEG4/ISO/AVC
Duration : 2 h 38 min
Bit rate : 11.3 Mb/s
Width : 1 920 pixels
Height : 810 pixels
Display aspect ratio : 2.40:1
Frame rate mode : Constant
Frame rate : 23.976 (24000/1001) FPS
Color space : YUV
Chroma subsampling : 4:2:0
Bit depth : 8 bits
Scan type : Progressive
Bits/(Pixel*Frame) : 0.304
Stream size : 12.6 GiB (98%)
Language : English
Default : Yes
Forced : No
Audio
ID : 2
Format : AAC
Format/Info : Advanced Audio Codec
Format profile : LC
Codec ID : A_AAC-2
Duration : 2 h 38 min
Bit rate : 192 kb/s
Channel(s) : 2 channels
Channel positions : Front: L R
Sampling rate : 48.0 kHz
Frame rate : 46.875 FPS (1024 SPF)
Compression mode : Lossy
Stream size : 215 MiB (2%)
Language : English
Default : Yes
Forced : No

Релиз от:


_________________
Проголосуй за трекер Открытый торрент трекер - RUS-MEDIA.ORG

Проголосуй Открытый торрент трекер - RUS-MEDIA.ORG


Вернуться к началу
 Профиль Отправить личное сообщение  
 
   Похожие торренты   Автор   Торрент   Размер 
В этой теме нет новых непрочитанных сообщений. Тигр жив / Tiger Zinda Hai [боевик, 2017] HDRip, Mvo [GreenРай Studio]

salma3

216 | 77

1.38 ГБ

В этой теме нет новых непрочитанных сообщений. Тигр жив / Tiger Zinda Hai [боевик, 2017] HDRip 720p, Mvo [GreenРай Studio]

salma3

66 | 49

5.58 ГБ

В этой теме нет новых непрочитанных сообщений. Тигр жив / Tiger Zinda Hai [Боевик, мелодрама, 2017] HDRip, Mvo

salma3

96 | 16

2.86 ГБ

В этой теме нет новых непрочитанных сообщений. Край / Kuang shou [боевик, криминал, 2017] HDRip 1080p, Mvo [GreenРай Studio]

salma3

33 | 42

7.27 ГБ

В этой теме нет новых непрочитанных сообщений. Непобедимый тигр / Тигр в полиции / Tiger On Beat / Lo foo chut gang [Боевик, комедия, криминал, 1988] BDRip-AVC, Avo

salma3

53 | 20

1.9 ГБ

В этой теме нет новых непрочитанных сообщений. Детектив Джагга / Jagga Jasoos [мюзикл, боевик, комедия, 2017] HDRip 1080p, Mvo [GreenРай Studio]

salma3

4 | 14

11.29 ГБ

В этой теме нет новых непрочитанных сообщений. Смертельный бой / Белый тигр / Death Fighter / White Tiger [боевик, 2017] DVDRip, Mvo

salma3

1198 | 190

1.37 ГБ


Начать новую тему Ответить на тему  [ 1 сообщение ] 




Для Мосгорсуда, Роскомнадзора и рекламодателей:: mosgorsud-torrent[собачка]yandex.ru
cron