Торрент файл
скачать торрент магнет ссылка Добавлен: 21 фев 2018, 12:31
Размер: 4.67 ГБ
Сидеров: 2
Личеров: 6
Статус: (salma3)
Автор

СообщениеДобавлено: 21 фев 2018, 12:31 

Не в сети
Супермодератор
Аватара пользователя
Дата регистрации:
15 фев 2012, 16:44
Возраст: 29
Спасибо: 7379 / 2147
Сообщения: 76148
Год выпуска: 2017
Жанр: Боевик, триллер, криминал
Режиссер: Тхалаивасал Виджай

В ролях: Андреа Джеремия, Симран, К. Бхагьяраджа, Р.С. Прасанна, В. Джаяпракаш, Деваяни

О фильме:
Работая детективом, ему часто приходилось распутывать сложные дела своих клиентов. Главным помощником ему всегда служил приятель Мано. Вместе они были, как современные Доктор Ватсон и Шерлок Холмс. Однажды этой парочке поручили найти пропавшую собаку. Проще дела у Детектива еще не было и он решил, что быстренько найдет пропажу. Однако, расследуя дело, он начал распутывать такой сложный клубок многочисленных преступлений, который вывели его на след неуловимого преступника, долгое время находящегося в розыске ...



Страна: Индия
Продолжительность: 02:35:02
Перевод: Любительский [многоголосый] [GreenРай Studio]

Файл
Кодек: x264
Качество: HDRip 720p
Видео: 4000 Кбит/с, 1280x536,23.976 fps
Звук: Русский (AC3, 2 ch, 384 Кбит/с)

имеется реклама


General
Unique ID : 225175535347415563811539260306974462365 (0xA9673B0A5D5724359CC510E8795A519D)
Complete name : E:GreenRayThupparivaalan.2017.P.WEBRip.720p.mkv
Format : Matroska
Format version : Version 4 / Version 2
File size : 4.67 GiB
Duration : 2 h 35 min
Overall bit rate mode : Constant
Overall bit rate : 4 314 kb/s
Encoded date : UTC 2018-02-20 12:48:17
Writing application : mkvmerge v8.3.0 ('Over the Horizon') 64bit
Writing library : libebml v1.3.1 + libmatroska v1.4.2

Video
ID : 1
Format : AVC
Format/Info : Advanced Video Codec
Format profile : Main@L3.1
Format settings : CABAC / 3 Ref Frames
Format settings, CABAC : Yes
Format settings, ReFrames : 3 frames
Format settings, GOP : M=4, N=15
Codec ID : V_MPEG4/ISO/AVC
Duration : 2 h 35 min
Bit rate mode : Constant
Bit rate : 4 000 kb/s
Width : 1 280 pixels
Height : 536 pixels
Display aspect ratio : 2.40:1
Frame rate mode : Constant
Frame rate : 23.976 (24000/1001) FPS
Standard : NTSC
Color space : YUV
Chroma subsampling : 4:2:0
Bit depth : 8 bits
Scan type : Progressive
Bits/(Pixel*Frame) : 0.243
Stream size : 4.25 GiB (91%)
Language : English
Default : Yes
Forced : No
Color range : Limited

Audio
ID : 2
Format : AC-3
Format/Info : Audio Coding 3
Codec ID : A_AC3
Duration : 2 h 35 min
Bit rate mode : Constant
Bit rate : 384 kb/s
Channel(s) : 2 channels
Channel positions : Front: L R
Sampling rate : 48.0 kHz
Frame rate : 31.250 FPS (1536 SPF)
Bit depth : 16 bits
Compression mode : Lossy
Stream size : 426 MiB (9%)
Service kind : Complete Main
Default : Yes
Forced : No



Релиз от:


_________________
Проголосуй за трекер Открытый торрент трекер - RUS-MEDIA.ORG

Проголосуй Открытый торрент трекер - RUS-MEDIA.ORG


Вернуться к началу
 Профиль Отправить личное сообщение  
 
   Похожие торренты   Автор   Торрент   Размер 
В этой теме нет новых непрочитанных сообщений. Детектив / Thupparivaalan [Боевик, триллер, криминал, 2017] HDRip, Mvo [GreenРай Studio]

salma3

5 | 10

2.05 ГБ

В этой теме нет новых непрочитанных сообщений. Третье убийство / Sandome no satsujin [драма, детектив, криминал, 2017] HDRip 720p, Mvo [GreenРай Studio]

salma3

0 | 3

3.09 ГБ

В этой теме нет новых непрочитанных сообщений. Край / Kuang shou [боевик, криминал, 2017] HDRip 720p, Mvo [GreenРай Studio]

salma3

34 | 25

4.4 ГБ

В этой теме нет новых непрочитанных сообщений. Лабиринт / Maze [Триллер, драма, криминал, 2017] HDRip 720p, Mvo [GreenРай Studio]

salma3

26 | 5

2.95 ГБ

В этой теме нет новых непрочитанных сообщений. Подставной город / Fabricated City [Боевик, криминал, 2017] HDRip 720p, Mvo [GreenРай Studio]

salma3

38 | 16

4.02 ГБ

В этой теме нет новых непрочитанных сообщений. Закон страны / Armoton maa [Драма, криминал, боевик, 2017] HDRip 720p, Mvo [GreenРай Studio]

salma3

13 | 3

2.91 ГБ

В этой теме нет новых непрочитанных сообщений. Детектив Джагга / Jagga Jasoos [мюзикл, боевик, комедия, 2017] HDRip 720p, Mvo [GreenРай Studio]

salma3

0 | 0

2.46 ГБ


Начать новую тему Ответить на тему  [ 1 сообщение ] 




Для Мосгорсуда, Роскомнадзора и рекламодателей:: mosgorsud-torrent[собачка]yandex.ru
cron