Торрент файл
скачать торрент магнет ссылка Добавлен: 07 ноя 2017, 12:27
Размер: 2.45 ГБ
Сидеров: 31
Личеров: 6
Статус: (salma3)
Автор

СообщениеДобавлено: 07 ноя 2017, 12:27 

Не в сети
Супермодератор
Аватара пользователя
Дата регистрации:
15 фев 2012, 16:44
Возраст: 28
Спасибо: 7290 / 2147
Сообщения: 70815
Год выхода: 2014
Жанр: фэнтези, драма, мелодрама
Режиссер: Раджкумар Хирани

В ролях: Аамир Кхан, Анушка Шарма, Санджай Датт, Боман Ирани, Саурабх Шукла, Сушант Сингх Раджпут, Парикшит Сахни, Амардип Джа, Рима Дебнатх, Диру Дривэди

О фильме:
ПиКей, инопланетянин, высаживается на Землю в городе, расположенном в пустыне Раджастан, для изучения человеческой природы и жизни на Земле. Но планета встретила его довольно грубо — у него украли пульт дистанционного управления, с помощью которого он держал связь с космическим кораблем. Теперь он должен найти пульт, а до тех пор ему придется выживать на Земле по-своему. ПиКей задает вопросы, которые никто не задавал раньше. Его детское любопытство приводит к катастрофическим последствиям. Люди, сформировавшиеся на протяжении многих поколений, вынуждены переоценивать свой мир, глядя на него невинными глазами ПиКея



Страна: Индия
Продолжительность: 02:32:32
Перевод: Любительский [двухголосый, закадровый] [den904&DeadSno]

Файл
Качество: HDRip-AVC
Видео: 1002x432, 23.976fps, High@L4.1, ~2059 Kb/s
Аудио: AC3, 48 KHz 2 ch ~ 192 Kb/s
Формат субтитров: softsub (SRT)
Субтитры: русские (на песни), английские

General
Unique ID : 85772854911042258983636303558851065811 (0x4087403F7F09E763881D459CCADE77D3)
Complete name : F:ПиКей_2014_HDRIP_AVC_[-=DoMiNo=-].mkv.mkv
Format : Matroska
Format version : Version 4 / Version 2
File size : 2.45 GiB
Duration : 2 h 32 min
Overall bit rate : 2 296 kb/s
Movie name : ПиКей
Deion : ПиКей, инопланетянин, высаживается на Землю в городе, расположенном в пустыне Раджастан, для изучения человеческой природы и жизни на Земле. Но планета встретила его довольно грубо — у него украли пульт дистанционного управления, с помощью которого он держал связь с космическим кораблем. Теперь он должен найти пульт, а до тех пор ему придется выживать на Земле по-своему. ПиКей задает вопросы, которые никто не задавал раньше. Его детское любопытство приводит к катастрофическим последствиям. Люди, сформировавшиеся на протяжении многих поколений, вынуждены переоценивать свой мир, глядя на него невинными глазами ПиКея
Writing application : XviD4PSP 7.0.417 DAILY
Writing library : Lavf57.71.100
ErrorDetectionType : Per level 1
Attachments : poster.jpg
ACTORS : Аамир Кхан, Анушка Шарма, Санджай Датт, Боман Ирани, Саурабх Шукла, Сушант Сингх Раджпут, Парикшит Сахни, Амардип Джа, Рима Дебнатх, Диру Дривэди, Сай Гандеуор, Рам Сетхи, Рукхсар, Арун Бали, Паллави Батра, Шаджи Чаудхари, Rahoul Daswani, Maanvi Gagroo, Камлеш Гилл, Нимиша Госвами, Раджив Гупта, Карим Хаджи, Harish Iyer, Бриджендра Кала, Ранбир Капур, Anil Mange, Раджиндер Шарма, Сачин Парих, Nitant Shrivastava
COMPOSER : Атул Гогавале, Шантану Мойтра
COUNTRY : Индия
DATE : 2014
DIRECTOR : Раджкумар Хирани
ENCODING_INFO : MATROSKA,WEBM > MKV Произвольный / H264 > X264 CRF 17.8 Произвольный / AC3 > COPY Безопасное
GENRE : фантастика, драма, мелодрама, комедия
HD_VIDEO : 1
IMDB_RATING : 8.20
Language : und
MEDIA_TYPE : 9
ORIGINAL_ACTORS : Aamir Khan, Anushka Sharma, Sanjay Dutt, Boman Irani, Saurabh Shukla, Sushant Singh Rajput, Parikshat Sahni, Amardeep Jha, Reema Debnath, Dheerendra Dwivedi, Sai Gundewar, Ram Sethi, Rukhsar, Arun Bali, Pallavi Batra, Shaji Chaudhary, Kamlesh Gill, Nimisha Goswami, Rajiv Gupta, Karim Hajee, Brijendra Kala, Ranbir Kapoor, Rajinder Sharma Nanu (в титрах: Rajinder Sharma), Sachin Parikh
ORIGINAL_TITLE : PK
PRODUCER : Видху Винод Чопра, Раджкумар Хирани, Анил Давда, Санджив Кишинчандани
RATING : 7.850
WRITER : Раджкумар Хирани, Абхиджит Джоши

Video
ID : 1
Format : AVC
Format/Info : Advanced Video Codec
Format profile : High@L4.1
Format settings : CABAC / 12 Ref Frames
Format settings, CABAC : Yes
Format settings, RefFrames : 12 frames
Codec ID : V_MPEG4/ISO/AVC
Duration : 2 h 32 min
Bit rate : 2 059 kb/s
Width : 1 002 pixels
Height : 432 pixels
Display aspect ratio : 2.35:1
Frame rate mode : Constant
Frame rate : 23.976 (24000/1001) FPS
Color space : YUV
Chroma subsampling : 4:2:0
Bit depth : 8 bits
Scan type : Progressive
Bits/(Pixel*Frame) : 0.198
Stream size : 2.19 GiB (90%)
Title : RIP_BY_-=DoMiNo=-
Writing library : x264 core 152 r2851M ba24899
Encoding settings : cabac=1 / ref=12 / deblock=1:-3:-3 / analyse=0x3:0x133 / me=umh / subme=11 / psy=1 / psy_rd=1.00:0.05 / mixed_ref=1 / me_range=32 / chroma_me=1 / trellis=2 / 8x8dct=1 / cqm=0 / deadzone=21,11 / fast_pskip=1 / chroma_qp_offset=-3 / threads=5 / lookahead_threads=1 / sliced_threads=0 / nr=0 / decimate=1 / interlaced=0 / bluray_compat=0 / constrained_intra=0 / bframes=12 / b_pyramid=2 / b_adapt=2 / b_bias=0 / direct=3 / weightb=1 / open_gop=0 / weightp=2 / keyint=230 / keyint_min=23 / scenecut=40 / intra_refresh=0 / rc_lookahead=60 / rc=crf / mbtree=1 / crf=17.8 / qcomp=0.60 / qpmin=0 / qpmax=69 / qpstep=4 / ip_ratio=1.40 / aq=1:1.00
Language : Hindi
Default : Yes
Forced : No

Audio
ID : 2
Format : AC-3
Format/Info : Audio Coding 3
Format settings, Endianness : Big
Codec ID : A_AC3
Duration : 2 h 32 min
Bit rate mode : Constant
Bit rate : 192 kb/s
Channel(s) : 2 channels
Channel positions : Front: L R
Sampling rate : 48.0 kHz
Frame rate : 31.250 FPS (1536 SPF)
Bit depth : 16 bits
Compression mode : Lossy
Stream size : 209 MiB (8%)
Title : den904 & DeadSno
Language : Russian
Service kind : Complete Main
Default : Yes
Forced : No

Text #1
ID : 3
Format : UTF-8
Codec ID : S_TEXT/UTF8
Codec ID/Info : UTF-8 Plain Text
Duration : 2 h 3 min
Language : Russian
Default : Yes
Forced : No

Text #2
ID : 4
Format : UTF-8
Codec ID : S_TEXT/UTF8
Codec ID/Info : UTF-8 Plain Text
Duration : 2 h 28 min
Language : English
Default : No
Forced : No

Menu
00:00:00.000 : :00:00:00.000
00:01:41.435 : :00:01:41.435
00:06:45.405 : :00:06:45.405
00:12:30.750 : :00:12:30.750
00:16:31.991 : :00:16:31.991
00:21:19.778 : :00:21:19.778
00:25:58.682 : :00:25:58.682
00:30:01.383 : :00:30:01.383
00:32:09.427 : :00:32:09.427
00:40:04.402 : :00:40:04.402
00:42:32.550 : :00:42:32.550
00:46:58.649 : :00:46:58.649
00:50:45.584 : :00:50:45.584
00:56:43.150 : :00:56:43.150
01:01:24.681 : :01:01:24.681
01:03:59.461 : :01:03:59.461
01:08:46.331 : :01:08:46.331
01:10:55.334 : :01:10:55.334
01:13:51.761 : :01:13:51.761
01:16:44.225 : :01:16:44.225
01:17:33.274 : :01:17:33.274
01:24:03.497 : :01:24:03.497
01:29:04.548 : :01:29:04.548
01:31:17.847 : :01:31:17.847
01:37:20.501 : :01:37:20.501
01:41:19.073 : :01:41:19.073
01:43:31.831 : :01:43:31.831
01:49:28.479 : :01:49:28.479
01:53:42.441 : :01:53:42.441
01:57:46.559 : :01:57:46.559
02:01:30.283 : :02:01:30.283
02:04:45.478 : :02:04:45.478
02:19:22.353 : :02:19:22.354
02:26:06.007 : :02:26:06.007
02:28:04.334 : :02:28:04.334


_________________
Проголосуй за трекер Открытый торрент трекер - RUS-MEDIA.ORG

Проголосуй Открытый торрент трекер - RUS-MEDIA.ORG


Вернуться к началу
 Профиль Отправить личное сообщение  
 
   Похожие торренты   Автор   Торрент   Размер 
В этой теме нет новых непрочитанных сообщений. Жена священника / The Preacher's Wife [фэнтези, драма, мелодрама, 1996] HDRip, Mvo [CTC]

salma3

0 | 0

1.45 ГБ

В этой теме нет новых непрочитанных сообщений. История призрака / A Ghost Story [Драма, мелодрама, фэнтези, 2017] HDRip, Avo

salma3

1956 | 110

1.51 ГБ

В этой теме нет новых непрочитанных сообщений. История призрака / A Ghost Story [фэнтези, драма, мелодрама, 2017] HDRip, Mvo

salma3

210 | 41

1.37 ГБ

В этой теме нет новых непрочитанных сообщений. Джем и голограммы / Jem and the Holograms [Фэнтези, драма, мелодрама, 2015] HDRip, Dub [iTunes]

salma3

28 | 12

1.46 ГБ

В этой теме нет новых непрочитанных сообщений. Моя Госпожа / My Mistress [драма, мелодрама, 2014] HDRip, Mvo

salma3

9 | 4

1.46 ГБ

В этой теме нет новых непрочитанных сообщений. Необычное свидание / A Sunday Kind of Love [фэнтези, драма, мелодрама, 2015] HDRip, Mvo

salma3

41 | 34

1.37 ГБ

В этой теме нет новых непрочитанных сообщений. Практическая магия / Practical Magic [фэнтези, драма, мелодрама, комедия, 1998] HDRip, Mvo

salma3

39 | 32

1.79 ГБ


Начать новую тему Ответить на тему  [ 1 сообщение ] 




Для Мосгорсуда, Роскомнадзора и рекламодателей:: mosgorsud-torrent[собачка]yandex.ru
cron