Торрент файл
скачать торрент магнет ссылка Добавлен: 21 ноя 2016, 11:39
Размер: 5.67 ГБ
Сидеров: 55
Личеров: 17
Статус: (salma3)
Автор

СообщениеДобавлено: 21 ноя 2016, 11:39 

Не в сети
Супермодератор
Аватара пользователя
Дата регистрации:
15 фев 2012, 16:44
Возраст: 27
Спасибо: 5363 / 2095
Сообщения: 19120
Страна: Индия
Жанр: драма, мелодрама, история
Год выпуска: 2015
Продолжительность: 02:37:56
Перевод: Любительский (многоголосый, закадровый)
Субтитры: русские(только на песни).
Режиссер: Санджай Лила Бхансали / Sanjay Leela Bhansali

В ролях: Ранвир Сингх (Peshwa Bajirao Ballal), Приянка Чопра (Kashibai), Дипика Падукон (Mastani), Танви Азми (Radha Maa), Махеш Манджрекар (Chattrapati Shahu Maharaj), Раза Мурад (Nizam of Deccan), Адитья Панчоли (Panth Pratinidhi), Милинд Соман (Ambaji Panth), Vaibbhav Tatwawdi (Chimaji), Ятин Карьекар (Krishnaji Bhatt), Бенджамин Гилани (Raja Chhatrasaal), Zila Khan (Ruhani Begum)

Описание: История любви индийского военачальника Баджи Рао I и мусульманской принцессы Мастани.



Качество: BDRip
Контейнер: MKV
Видео: AVC, 1280x536 (2.40:1), 4204 kbps, 24 fps, 0,255 bpp
Аудио №1: русский / AC3 / 2.0 / 48 kHz / 192 kbps / MVO ( ❖ Honey&Haseena ❖ )
Аудио №2: Hindi / AC3 / 5.1 / 48 kHz / 640 kbps
Навигация по главам: есть

***************************************************************
x264 [info]: frame I:2167 Avg QP:16.37 size:112647
x264 [info]: frame P:52606 Avg QP:18.18 size: 41347
x264 [info]: frame B:172669 Avg QP:20.40 size: 15521
***************************************************************
Формат : Matroska
Версия формата : Version 2
Размер файла : 5,67 Гбайт
Продолжительность : 2 ч. 37 м.
Общий поток : 5139 Кбит/сек
Название фильма : = Баджирао и Мастани / Bajirao Mastani (2015) BDRip 720p by SC Kosmos =
Дата кодирования : UTC 2016-11-18 11:04:27
Программа кодирования : mkvmerge v5.8.0 ('No Sleep / Pillow') built on Sep 2 2012 15:37:04
Библиотека кодирования : libebml v1.2.3 + libmatroska v1.3.0
Attachment : Yes
Видео
Идентификатор : 1
Формат : AVC
Формат/Информация : Advanced Video Codec
Профиль формата : High@L4.1
Параметр CABAC формата : Да
Параметр ReFrames формата : 10 кадров
Идентификатор кодека : V_MPEG4/ISO/AVC
Продолжительность : 2 ч. 37 м.
Битрейт : 4205 Кбит/сек
Ширина : 1280 пикселей
Высота : 536 пикселей
Соотношение сторон : 2,40:1
Режим частоты кадров : Постоянный
Частота кадров : 24,000 кадра/сек
Цветовое пространство : YUV
Субдискретизация насыщенности : 4:2:0
Битовая глубина : 8 бит
Тип развёртки : Прогрессивная
Бит/(Пиксели*Кадры) : 0.255
Размер потока : 4,64 Гбайт (82%)
Заголовок : Баджирао и Мастани / Bajirao Mastani (2015) BDRip 720p by SC Kosmos
Библиотека кодирования : x264 core 146 r2538 121396c
Настройки программы : cabac=1 / ref=10 / deblock=1:-3:-3 / analyse=0x3:0x113 / me=umh / subme=11 / psy=1 / psy_rd=1.10:0.00 / mixed_ref=1 / me_range=32 / chroma_me=1 / trellis=2 / 8x8dct=1 / cqm=0 / deadzone=21,11 / fast_pskip=0 / chroma_qp_offset=-2 / threads=12 / lookahead_threads=3 / sliced_threads=0 / nr=0 / decimate=1 / interlaced=0 / bluray_compat=0 / constrained_intra=0 / bframes=10 / b_pyramid=2 / b_adapt=2 / b_bias=0 / direct=3 / weightb=1 / open_gop=0 / weightp=2 / keyint=240 / keyint_min=24 / scenecut=40 / intra_refresh=0 / rc=crf / mbtree=0 / crf=17.6 / qcomp=0.60 / qpmin=0 / qpmax=69 / qpstep=4 / ip_ratio=1.40 / pb_ratio=1.30 / aq=1:0.90
Язык : Hindi
Default : Да
Forced : Нет
Аудио #1
Идентификатор : 2
Формат : AC-3
Формат/Информация : Audio Coding 3
Расширение режима : CM (complete main)
Параметр Endianness формата : Big
Идентификатор кодека : A_AC3
Продолжительность : 2 ч. 37 м.
Вид битрейта : Постоянный
Битрейт : 192 Кбит/сек
Каналы : 2 канала
Расположение каналов : Front: L R
Частота : 48,0 КГц
Битовая глубина : 16 бит
Метод сжатия : С потерями
Размер потока : 217 Мбайт (4%)
Заголовок : MVO ( ❖ Honey&Haseena ❖ )
Язык : Russian
Default : Да
Forced : Нет
Аудио #2
Идентификатор : 3
Формат : AC-3
Формат/Информация : Audio Coding 3
Расширение режима : CM (complete main)
Параметр Endianness формата : Big
Идентификатор кодека : A_AC3
Продолжительность : 2 ч. 37 м.
Вид битрейта : Постоянный
Битрейт : 640 Кбит/сек
Каналы : 6 каналов
Расположение каналов : Front: L C R, Side: L R, LFE
Частота : 48,0 КГц
Битовая глубина : 16 бит
Метод сжатия : С потерями
Размер потока : 723 Мбайт (12%)
Язык : Hindi
Default : Нет
Forced : Нет
Текст
Идентификатор : 4
Формат : UTF-8
Идентификатор кодека : S_TEXT/UTF8
Идентификатор кодека/Информация : UTF-8 Plain Text
Заголовок : (только на песни)
Язык : Russian
Default : Да
Forced : Да
Меню
00:00:00.000 : en:00:00:00.000
00:08:51.875 : en:00:08:51.875
00:16:32.875 : en:00:16:32.875
00:28:24.708 : en:00:28:24.708
00:37:00.833 : en:00:37:00.833
00:44:05.083 : en:00:44:05.083
00:50:25.958 : en:00:50:25.958
00:56:54.916 : en:00:56:54.916
01:11:40.541 : en:01:11:40.541
01:16:16.707 : en:01:16:16.707
01:25:43.957 : en:01:25:43.957
01:28:03.541 : en:01:28:03.541
01:34:30.457 : en:01:34:30.457
01:40:07.082 : en:01:40:07.082
01:46:36.625 : en:01:46:36.625
01:50:35.791 : en:01:50:35.791
01:58:34.000 : en:01:58:34.000
02:05:03.750 : en:02:05:03.750
02:11:53.875 : en:02:11:53.875
02:18:33.958 : en:02:18:33.958
02:33:10.790 : en:02:33:10.790


Озвучка: Денис Строев, Давид Петросян и Маргарита Сахно
Перевод и редакция: ❖ Honey&Haseena ❖
Фильм переведён и озвучен по специальному заказу группы ВК Санджай Лила Бхансали


_________________
Проголосуй за трекер Открытый торрент трекер - RUS-MEDIA.ORG

Не забудьте оставить комментарий!



реклама партнёра


Вернуться к началу
 Профиль Отправить личное сообщение  
 
   Похожие торренты   Автор   Торрент   Размер 
В этой теме нет новых непрочитанных сообщений. Баджирао и Мастани / Bajirao Mastani [драма, мелодрама, история, 2015] HDRip, Mvo

salma3

47 | 4

1.7 ГБ

В этой теме нет новых непрочитанных сообщений. Девушка-король / The Girl King [Драма, мелодрама, биография, история, 2015] BDRip 720p, Avo

salma3

49 | 32

5.6 ГБ

В этой теме нет новых непрочитанных сообщений. Наша неполная история / Hamari Adhuri Kahani (Мохит Сури) [Драма, Мелодрама, 2015] BDRip 720p, mvo+sub

Dracon

263 | 13

3.29 ГБ

В этой теме нет новых непрочитанных сообщений. Ип Ман 3D / Yip Man 3 [боевик, драма, биография, история, 2015] BDRip 720p, Mvo

salma3

1277 | 74

4.46 ГБ

В этой теме нет новых непрочитанных сообщений. 33 / The 33 [драма, биография, история, 2015] BDRip 720p, Dub [SDI Media]

salma3

42 | 27

8.34 ГБ

В этой теме нет новых непрочитанных сообщений. Суфражистка / Suffragette [драма, биография, история, 2015] BDRip 720p, Dub+Sub [Лицензия]

salma3

112 | 44

7.64 ГБ

В этой теме нет новых непрочитанных сообщений. В центре внимания / Spotlight [драма, криминал, биография, история, 2015] BDRip 720p, MVO

marya111

64 | 14

9.34 ГБ


Начать новую тему Ответить на тему  [ 1 сообщение ] 




Для Мосгорсуда, Роскомнадзора и рекламодателей:: mosgorsud-torrent[собачка]yandex.ru