Торрент файл
скачать торрент магнет ссылка Добавлен: 30 окт 2016, 13:14
Размер: 11.38 ГБ
Сидеров: 323
Личеров: 107
Статус: (salma3)
Автор

СообщениеДобавлено: 30 окт 2016, 13:14 

Не в сети
Супермодератор
Аватара пользователя
Дата регистрации:
15 фев 2012, 16:44
Возраст: 28
Спасибо: 6403 / 2128
Сообщения: 37739
Год выхода: 2016
Жанр: Триллер, драма, детектив
Режиссер: Рибху Дасгупта

В ролях: Амитабх Баччан, Навазуддин Сиддикуи, Видья Балан, Мукеш Чхабра, Падмавати Рао, Сабьясачи Чакраборти, Сунил Синха, Тота Рой Чаудхари, Анупам Бхаттачария, Паритош Санд, Ардхенду Банерджи

О фильме:
8 лет назад была похищена девочка. Её похититель исчез без следа. Полиции так и не удалось найти его. Спустя 8 лет, таким же способом совершается ещё одно похищение. Теперь три человека пытаются любым способом найти похитителя: полицейский, а ныне священник, который когда-то расследовал это дело, дедушка, внучку которого украли средь бела дня, и женщина-детектив, которая взялась за расследование дела о втором похищении.



Страна: Индия
Продолжительность: 02:13:29
Перевод: Профессиональный [многоголосый, закадровый]

Файл
Кодек: h.264
Качество: BDRip 1080p
Видео: MPEG-4 AVC, 9961 Кбит/с, 1920x816, 24.000 кадр/с
Звук:
Русский (AC3, 6 ch, 640 Кбит/с) / Профессиональный многоголосый
Хинди (DTS, 6 ch, 1509 Кбит/с)
Субтитры: Русские
Семпл
Автор релиза - Silverok, За Bly-ray спасибо pirs18
Субтитры: S_TEXT/UTF8 (SRT) - Русские
Сохранены оригинальные главы как на Blu-ray

x264 [info]: frame I:1227 Avg QP:13.96 size:214170
x264 [info]: frame P:43804 Avg QP:16.75 size: 87145
x264 [info]: frame B:150671 Avg QP:18.06 size: 40277
General
Unique ID : 200743468031639789009835258536995632407 (0x9705C91E89CEEDEDAC89E9A6C5E0B517)
Complete name : D:uTorrentTroe.2016.BDRip.1080p.MediaClub.mkv
Format : Matroska
Format version : Version 4 / Version 2
File size : 11.5 GiB
Duration : 2 h 13 min
Overall bit rate : 12.1 Mb/s
Encoded date : UTC 2016-10-29 10:06:01
Writing application : mkvmerge v9.4.2 ('So High') 64bit
Writing library : libebml v1.3.4 + libmatroska v1.4.5
Video
ID : 1
Format : AVC
Format/Info : Advanced Video Codec
Format profile : High@L4.1
Format settings, CABAC : Yes
Format settings, ReFrames : 5 frames
Codec ID : V_MPEG4/ISO/AVC
Duration : 2 h 15 min
Bit rate : 9 961 kb/s
Width : 1 920 pixels
Height : 816 pixels
Display aspect ratio : 2.35:1
Frame rate mode : Constant
Frame rate : 24.000 FPS
Color space : YUV
Chroma subsampling : 4:2:0
Bit depth : 8 bits
Scan type : Progressive
Bits/(Pixel*Frame) : 0.265
Stream size : 9.23 GiB (80%)
Title : BDRip by Silverok
Writing library : x264 core 148 r2638 7599210
Encoding settings : cabac=1 / ref=5 / deblock=1:-3:-3 / analyse=0x3:0x113 / me=umh / subme=11 / psy=1 / psy_rd=1.00:0.10 / mixed_ref=1 / me_range=48 / chroma_me=1 / trellis=2 / 8x8dct=1 / cqm=0 / deadzone=21,11 / fast_pskip=0 / chroma_qp_offset=-3 / threads=12 / lookahead_threads=3 / sliced_threads=0 / nr=0 / decimate=0 / interlaced=0 / bluray_compat=0 / constrained_intra=0 / bframes=16 / b_pyramid=2 / b_adapt=2 / b_bias=0 / direct=3 / weightb=1 / open_gop=0 / weightp=2 / keyint=240 / keyint_min=24 / scenecut=40 / intra_refresh=0 / rc_lookahead=40 / rc=2pass / mbtree=0 / bitrate=9961 / ratetol=1.0 / qcomp=0.60 / qpmin=0 / qpmax=69 / qpstep=4 / cplxblur=20.0 / qblur=0.5 / vbv_maxrate=62500 / vbv_bufsize=78125 / nal_hrd=none / filler=0 / ip_ratio=1.40 / pb_ratio=1.30 / aq=1:1.00
Default : Yes
Forced : No
Audio #1
ID : 2
Format : AC-3
Format/Info : Audio Coding 3
Mode extension : CM (complete main)
Format settings, Endianness : Big
Codec ID : A_AC3
Duration : 2 h 15 min
Bit rate mode : Constant
Bit rate : 640 kb/s
Channel(s) : 6 channels
Channel positions : Front: L C R, Side: L R, LFE
Sampling rate : 48.0 kHz
Frame rate : 31.250 FPS (1536 spf)
Compression mode : Lossy
Stream size : 622 MiB (5%)
Title : Профессиональный многоголосый закадровый
Language : Russian
Default : Yes
Forced : No
Audio #2
ID : 3
Format : DTS
Format/Info : Digital Theater Systems
Mode : 16
Format settings, Endianness : Big
Codec ID : A_DTS
Duration : 2 h 15 min
Bit rate mode : Constant
Bit rate : 1 509 kb/s
Channel(s) : 6 channels
Channel positions : Front: L C R, Side: L R, LFE
Sampling rate : 48.0 kHz
Frame rate : 93.750 FPS (512 spf)
Bit depth : 24 bits
Compression mode : Lossy
Stream size : 1.43 GiB (12%)
Language : Hindi
Default : No
Forced : No
Text
ID : 4
Format : UTF-8
Codec ID : S_TEXT/UTF8
Codec ID/Info : UTF-8 Plain Text
Language : Russian
Default : Yes
Forced : No
Menu
00:00:00.000 : en:
00:03:58.000 : en:
00:09:25.166 : en:
00:12:51.708 : en:
00:14:40.333 : en:
00:20:14.125 : en:
00:30:42.666 : en:
00:31:54.000 : en:
00:43:58.583 : en:
00:52:24.375 : en:
01:13:11.166 : en:
01:17:32.250 : en:
01:23:38.000 : en:
01:25:21.291 : en:
01:26:23.166 : en:
01:32:33.666 : en:
01:41:19.791 : en:
01:56:47.541 : en:
02:01:40.833 : en:
02:07:22.500 : en:
02:12:32.708 : en:


Релиз от: | Silverok


_________________
Проголосуй за трекер Открытый торрент трекер - RUS-MEDIA.ORG

Проголосуй Открытый торрент трекер - RUS-MEDIA.ORG



реклама партнёра


Вернуться к началу
 Профиль Отправить личное сообщение  
 
   Похожие торренты   Автор   Торрент   Размер 
В этой теме нет новых непрочитанных сообщений. Трое / Te3n ( Триллер, драма, детектив, 2016) BDRip-AVC от MediaClub | L

marya111

137 | 6

2.47 ГБ

В этой теме нет новых непрочитанных сообщений. Трое / Te3n [Триллер, драма, детектив, 2016] HDRip, Mvo

salma3

65 | 21

1.46 ГБ

В этой теме нет новых непрочитанных сообщений. Подношение / The Offering [ужасы, триллер, драма, детектив, 2016] BDRip 1080p. Mvo

salma3

1 | 4

7.66 ГБ

В этой теме нет новых непрочитанных сообщений. Прибытие / Arrival [фантастика, триллер, драма, детектив, 2016] BDRip 1080p, Dub+Sub [Лицензия]

salma3

438 | 154

9.75 ГБ

В этой теме нет новых непрочитанных сообщений. Прибытие / Arrival (фантастика, триллер, драма, детектив, 2016) BDRip 1080p HEVC | iTunes

marya111

768 | 135

4.29 ГБ

В этой теме нет новых непрочитанных сообщений. Девушка в поезде / The Girl on the Train [триллер, драма, детектив, 2016] BDRip 1080p, Dub+Sub [Лицензия]

salma3

79 | 24

11.43 ГБ

В этой теме нет новых непрочитанных сообщений. Персональный покупатель / Personal Shopper [триллер, драма, детектив, 2016] BDRip 1080p, Mvo [iTunes]

salma3

244 | 225

7.92 ГБ


Начать новую тему Ответить на тему  [ 1 сообщение ] 




Для Мосгорсуда, Роскомнадзора и рекламодателей:: mosgorsud-torrent[собачка]yandex.ru