Торрент файл
скачать торрент магнет ссылка Добавлен: 21 мар 2016, 13:22
Размер: 2.14 ГБ
Сидеров: 2
Личеров: 0
Статус: (salma3)
Автор

СообщениеДобавлено: 21 мар 2016, 13:22 

Не в сети
Супермодератор
Аватара пользователя
Дата регистрации:
15 фев 2012, 16:44
Возраст: 28
Спасибо: 6831 / 2147
Сообщения: 49270
Страна: Индия
Жанр: Боевик, триллер, криминал, драма
Год выпуска: 2014
Продолжительность: 02:56:26

Перевод: Профессиональный (многоголосый закадровый) SDI Media
Cубтитры: нет
Режиссер: Р.Т. Несон / R.T. Neason

В ролях: Виджай, Каджал Агарвал, Моханлал, Махат Рагхавендра, Прадип Рават, Сури, Ниведа Томас, Пурнима Джаярам, Сампат Радж

Описание: В криминальной разборке погиб отец Шакти, но сиротой мальчик не стал – его взяла к себе в дом и окружила любовью семья мадурайского дона Шивы. Спустя годы не было в мире преданней Шиве человека, чем его приемный сын. Джилла, как называли Шакти за его бесстрашность, готов был горы свернуть ради Шивы. Но однажды Шива решил, что полиция ему сильно мешает, а, значит, в полиции у него должен быть свой надежный парень. Ну, конечно же, выбор пал на Шакти. А поскольку у парня к полицейской форме дикая ненависть, возникает некоторая щекотливая ситуация...

Доп. информация: Cинхронизация аудио: soso4eg (Спасибо!)

Сэмпл: http://multi-up.com/1094031

Качество видео: HDRip (Исх. неизвестен)
Формат видео: AVI
Видео: XviD build 73, 720x304 (2.37:1), 24 fps, 1534 kbps avg
Аудио: AC3 Dolby Digital, 48 kHz, 2/0 (L,R) ch, 192.00 kbps
General
Complete name : F:\Otstupnik.2014.XviD.HDRip.avi
Format : AVI
Format/Info : Audio Video Interleave
Format profile : OpenDML
File size : 2.14 GiB
Duration : 2h 56mn
Overall bit rate : 1 733 Kbps
Writing application : VirtualDubMod 1.5.10.2 (build 2540/release)
Writing library : VirtualDubMod build 2540/release

Video
ID : 0
Format : MPEG-4 Visual
Format profile : AdvancedSimple@L5
Format settings, BVOP : Yes
Format settings, QPel : Yes
Format settings, GMC : No warppoints
Format settings, Matrix : Default (H.263)
Codec ID : XVID
Codec ID/Hint : XviD
Duration : 2h 56mn
Bit rate : 1 529 Kbps
Width : 720 pixels
Height : 304 pixels
Display aspect ratio : 2.35
Frame rate : 24.000 fps
Resolution : 24 bits
Colorimetry : 4:2:0
Scan type : Progressive
Bits/(Pixel*Frame) : 0.291
Stream size : 1.88 GiB (88%)
Writing library : XviD 73

Audio
ID : 1
Format : AC-3
Format/Info : Audio Coding 3
Codec ID : 2000
Duration : 2h 56mn
Bit rate mode : Constant
Bit rate : 192 Kbps
Channel(s) : 2 channels
Channel positions : L R
Sampling rate : 48.0 KHz
Stream size : 242 MiB (11%)
Alignment : Split accross interleaves
Interleave, duration : 42 ms (1.00 video frame)
Interleave, preload duration : 500 ms


_________________
Проголосуй за трекер Открытый торрент трекер - RUS-MEDIA.ORG

Проголосуй Открытый торрент трекер - RUS-MEDIA.ORG



реклама партнёра


Вернуться к началу
 Профиль Отправить личное сообщение  
 
   Похожие торренты   Автор   Торрент   Размер 
В этой теме нет новых непрочитанных сообщений. Кто он? / Yevadu [Драма, боевик, 2014] HDRip, Mvo [SDI Media]

salma3

8 | 3

1.45 ГБ

В этой теме нет новых непрочитанных сообщений. Кафе «Мадрас» / Madras Cafe [Боевик, триллер, драма, военный, 2013] HDRip, Mvo [SDI Media]

salma3

108 | 32

1.46 ГБ

В этой теме нет новых непрочитанных сообщений. Кольт 45 / Colt 45 (Фабрис Дю Вельц) [боевик, триллер, драма, криминал, 2014] HDRip, Mvo

Dracon

24 | 3

1.37 ГБ

В этой теме нет новых непрочитанных сообщений. Последняя запись 2 / Ragini MMS 2 [ужасы, триллер, мелодрама, 2014] HDRip, Mvo [SDI Media]

salma3

3 | 3

1.37 ГБ

В этой теме нет новых непрочитанных сообщений. Ганмен / The Gunman (Пьер Морель) [Боевик, Триллер, Драма, Криминал, Детектив, 2014] HDRip, Avo

Dracon

7936 | 49

1.46 ГБ

В этой теме нет новых непрочитанных сообщений. Самый жестокий год / A Most Violent Year (Джей Си Чендор) [боевик, триллер, драма, криминал, 2014] HDRip, dvo

Dracon

92 | 4

1.35 ГБ

В этой теме нет новых непрочитанных сообщений. Ганмен / The Gunman (Пьер Морель) [Боевик, Триллер, Драма, Криминал, Детектив, 2014] HDRip, Dub [iTunes]

Dracon

108 | 5

1.37 ГБ


Начать новую тему Ответить на тему  [ 1 сообщение ] 




Для Мосгорсуда, Роскомнадзора и рекламодателей:: mosgorsud-torrent[собачка]yandex.ru