Торрент файл
скачать торрент магнет ссылка Добавлен: 18 мар 2016, 22:21
Размер: 1.37 ГБ
Сидеров: 2
Личеров: 1
Автор

СообщениеДобавлено: 18 мар 2016, 22:21 

Не в сети
Супермодератор
Аватара пользователя
Дата регистрации:
15 фев 2012, 16:44
Возраст: 28
Спасибо: 6672 / 2146
Сообщения: 46100
Любовь / Issaq

Страна: Индия
Жанр: Драма, боевик
Год выпуска: 2013
Продолжительность: 02:25:55
Перевод: Профессиональный (многоголосый закадровый) - Zee Tv
Cубтитры: нет
Режиссер: Маниш Тивари / Manish Tiwary
В ролях: Малини Авасти, Сендип Бозе, Эмира Дастур, Макранд Дешпандэ, Прадип Гхош, Нина Гупта, Рави Кишан
Описание: История разворачивается в Банарасе и его районах, где правит песочная мафия и жестокость наксалитов. Песок не могут поделить две влиятельные семьи Банараси: Кашияпы и Мишра, их бессмысленная вражда губит членов их семей. У Кашияпа есть 18-летняя дочь, красивая и невинная Баччи от его первого брака. С другой стороны, сын Мишры, Рахул — красавец, увлеченный лишь девушками и оружием. Все меняется, когда Рахул и Баччи влюбляются друг в друга…
l
Качество видео: WEBRip
Формат видео: AVI
Видео: 720x304 (2.35:1), 25.000 fps, XviD build 50, 1146 Kbps, 0.21 bit/pixel
Аудио: 48.0 kHz, AC3 Dolby Digital, 2/0 (L,R) ch, 192 Kbps

Запись, сведение звука: oktober

General
Complete name : Downloads\Lubov.V.Varanasi.2013.WEBRip.XviD.oktober.avi
Format : AVI
Format/Info : Audio Video Interleave
File size : 1.37 GiB
Duration : 2h 25mn
Overall bit rate : 1 348 Kbps
Writing application : VirtualDubMod 1.5.10.2 (build 2540/release)
Writing library : VirtualDubMod build 2540/release
Video #0
ID : 0
Format : MPEG-4 Visual
Format profile : Advanced Simple@L5
Format settings, BVOP : 1
Format settings, QPel : No
Format settings, GMC : No warppoints
Format settings, Matrix : Default (H.263)
Codec ID : XVID
Codec ID/Hint : XviD
Duration : 2h 25mn
Bit rate : 1 146 Kbps
Width : 720 pixels
Height : 304 pixels
Display aspect ratio : 2.35:1
Frame rate : 25.000 fps
Color space : YUV
Chroma subsampling : 4:2:0
Bit depth : 8 bits
Scan type : Progressive
Compression mode : Lossy
Bits/(Pixel*Frame) : 0.210
Stream size : 1.17 GiB (85%)
Writing library : XviD 1.2.1 (UTC 2008-12-04)
Audio #1
ID : 1
Format : AC-3
Format/Info : Audio Coding 3
Mode extension : CM (complete main)
Format settings, Endianness : Big
Codec ID : 2000
Duration : 2h 25mn
Bit rate mode : Constant
Bit rate : 192 Kbps
Channel(s) : 2 channels
Channel positions : Front: L R
Sampling rate : 48.0 KHz
Bit depth : 16 bits
Compression mode : Lossy
Stream size : 200 MiB (14%)
Alignment : Aligned on interleaves
Interleave, duration : 40 ms (1.00 video frame)
Interleave, preload duration : 512 ms


_________________
Проголосуй за трекер Открытый торрент трекер - RUS-MEDIA.ORG

Проголосуй Открытый торрент трекер - RUS-MEDIA.ORG



реклама партнёра


Вернуться к началу
 Профиль Отправить личное сообщение  
 
   Похожие торренты   Автор   Торрент   Размер 
В этой теме нет новых непрочитанных сообщений. Чистая любовь / Sunjeong [драма, мелодрама, 2016] WEBRip 720p, Dvo

salma3

18 | 3

1.76 ГБ

В этой теме нет новых непрочитанных сообщений. Любовь и дружба / Love & Friendship [драма, мелодрама, комедия, 2016] WEBRip, Mvo

salma3

607 | 58

1.37 ГБ

В этой теме нет новых непрочитанных сообщений. Любовь всей моей жизни / Love of My life [Драма, комедия, 2017] WEBRip, Dvo

salma3

5 | 0

1.37 ГБ

В этой теме нет новых непрочитанных сообщений. Чистильщики / Cleaners [S01] (Пол Лейден) [2013, боевик, WEBRip]

Dracon

168 | 9

1.5 ГБ

В этой теме нет новых непрочитанных сообщений. Любовь матери 5 / A Mother's Love 5 (2016) WEBRip

salma3

62 | 25

2.16 ГБ

В этой теме нет новых непрочитанных сообщений. Обливион / Oblivion [фантастика, боевик, триллер, 2013] WEBRip-AVC, Dub [Open Matte]

salma3

236 | 97

2.92 ГБ

В этой теме нет новых непрочитанных сообщений. Эшли / Ashley [драма, 2013] WEBRip, Dvo

salma3

1 | 0

1.38 ГБ


Начать новую тему Ответить на тему  [ 1 сообщение ] 




Для Мосгорсуда, Роскомнадзора и рекламодателей:: mosgorsud-torrent[собачка]yandex.ru