Торрент файл
скачать торрент магнет ссылка Добавлен: 01 мар 2016, 12:57
Размер: 1.37 ГБ
Сидеров: 4
Личеров: 2
Автор

СообщениеДобавлено: 01 мар 2016, 12:57 

Не в сети
Супермодератор
Аватара пользователя
Дата регистрации:
15 фев 2012, 16:44
Возраст: 28
Спасибо: 7225 / 2147
Сообщения: 68142
Возвращение льва / The Return of Lion / Srimannarayana

Страна: Индия
Жанр: Драма, боевик
Год выпуска: 2012
Продолжительность: 02:15:15

Перевод: Профессиональный (двухголосый закадровый) Ульпаней Эльром
Cубтитры: нет
Режиссер: Рави С. Кумар / Ravi C. Kumar

В ролях: Балакришна, Парвати Мелтон, Иша Чавла, Шриниваса Рао Кота, Суреш, Винод Кумар, Виджаякумар, Джаяпракаш Редди, Кришна Бхагаван, Аахутхи Прасад, Судха, Дхармаварапу Субраманьям, М.С. Нараяна, Раджа Равиндра, Рао Рамеш, Мохан Дувваси, Нагиниду, Суприт

Описание: Отважный журналист решил вывести на чистую воду банду, наживающуюся на бедных крестьянах.

Доп. информация: Запись звука с т/к Bollywood HD и его сведение - oktober

Сэмпл: http://multi-up.com/1087772

Качество видео: WEBRip
Формат видео: AVI

Видео: XviD build 50, 720x304 (2.37:1), 24 fps, 1249 kbps avg
Аудио: AC3 Dolby Digital, 48 kHz, 2/0 (L,R) ch, 192.00 kbps
General
Complete name : F:\Vozvraschenie.leva.2012.WEBRip.avi
Format : AVI
Format/Info : Audio Video Interleave
File size : 1.37 GiB
Duration : 2h 15mn
Overall bit rate : 1 451 Kbps
Writing application : VirtualDubMod 1.5.10.3 | http://www.virtualdub-fr.org || (build 2550/release)
Writing library : VirtualDubMod build 2550/release

Video
ID : 0
Format : MPEG-4 Visual
Format profile : AdvancedSimple@L5
Format settings, BVOP : Yes
Format settings, QPel : No
Format settings, GMC : No warppoints
Format settings, Matrix : Default (MPEG)
Codec ID : XVID
Codec ID/Hint : XviD
Duration : 2h 15mn
Bit rate : 1 249 Kbps
Width : 720 pixels
Height : 304 pixels
Display aspect ratio : 2.35
Frame rate : 24.000 fps
Resolution : 24 bits
Colorimetry : 4:2:0
Scan type : Progressive
Bits/(Pixel*Frame) : 0.238
Stream size : 1.18 GiB (86%)
Writing library : XviD 1.2.1 (UTC 2008-12-04)

Audio
ID : 1
Format : AC-3
Format/Info : Audio Coding 3
Codec ID : 2000
Duration : 2h 15mn
Bit rate mode : Constant
Bit rate : 192 Kbps
Channel(s) : 2 channels
Channel positions : L R
Sampling rate : 48.0 KHz
Stream size : 186 MiB (13%)
Alignment : Split accross interleaves
Interleave, duration : 42 ms (1.00 video frame)
Interleave, preload duration : 500 ms


_________________
Проголосуй за трекер Открытый торрент трекер - RUS-MEDIA.ORG

Проголосуй Открытый торрент трекер - RUS-MEDIA.ORG


Вернуться к началу
 Профиль Отправить личное сообщение  
 
   Похожие торренты   Автор   Торрент   Размер 
В этой теме нет новых непрочитанных сообщений. Супермодель / Super Model [Драма, мелодрама, детектив, 2013] DVDRip, Dvo [Ульпаней Эльром]

salma3

11 | 3

1.41 ГБ

В этой теме нет новых непрочитанных сообщений. Страж-лев: Возвращение Рыка / The Lion Guard: Return of the Roar (Хауи Паркинс) [мультфильм, семейный, приключения, 2015] WEB-DLRip, dub [Чистый звук]

Dracon

2282 | 148

698.22 МБ

В этой теме нет новых непрочитанных сообщений. Nat Geo Wild: Ночь льва / Night of the Lion (2010) HDTV 1080i | D

salma3

1 | 1

4.55 ГБ

В этой теме нет новых непрочитанных сообщений. Возвращение живых мертвецов 2 / Return of the Living Dead: Part II [ужасы, фантастика, комедия, 1988] WEBRip 1080p, Mvo+Avo

salma3

24 | 30

9.62 ГБ

В этой теме нет новых непрочитанных сообщений. Возвращение болотной твари / The Return of Swamp Thing [ужасы, фантастика, боевик, 1989] BDRip-AVC, Avo

salma3

32 | 11

745.74 МБ

В этой теме нет новых непрочитанных сообщений. Возвращение болотной твари / The Return of Swamp Thing [ужасы, фантастика, боевик, 1989] BDRemux 1080р, Avo+Sub

salma3

8 | 6

13.62 ГБ

В этой теме нет новых непрочитанных сообщений. Возвращение болотной твари / The Return of Swamp Thing [ужасы, фантастика, боевик, 1989] BDRip 1080р, Avo

salma3

6 | 2

8.62 ГБ


Начать новую тему Ответить на тему  [ 1 сообщение ] 




Для Мосгорсуда, Роскомнадзора и рекламодателей:: mosgorsud-torrent[собачка]yandex.ru
cron