Торрент файл
скачать торрент магнет ссылка Добавлен: 29 июн 2015, 19:12
Размер: 1.46 ГБ
Сидеров: 42
Личеров: 7
Статус: (salma3)
Автор

СообщениеДобавлено: 29 июн 2015, 19:12 

Не в сети
Супермодератор
Аватара пользователя
Дата регистрации:
15 фев 2012, 16:44
Возраст: 29
Спасибо: 7377 / 2147
Сообщения: 75888
Веселая семейка снова в деле / Сумасшедшая Семейка 2 / Yamla Pagla Deewana 2

Год выхода: 2013
Жанр: Боевик, драма, комедия
Режиссер: Сангит Сиван

В ролях: Дхармендра, Санни Деол, Бобби Деол, Неха Шарма, Кристина Ахеева, Анну Капур, Джонни Левер, Сушита Ханна, Эйдан Кук, Анупам Кхер

Описание: Веселая семейка вновь собирается вместе. На этот раз в Великобритании. Теперь веселая троица вдвойне полна задора, веселья и романтики, ведь к ним присоединились две очаровательные девушки.



Выпущено: Индия, Sunny Super Sound, YPD Films
Продолжительность: 02:34:00
Озвучивание: Профессиональный (многоголосый закадровый) [SDI Media (т/к Индия ТВ]

Файл
Качество: DVDRip
Формат файла: AVI
Видео кодек: XviD
Аудио кодек: AC3
Видео: 1215 kb/s, 688x288
Звук: AC3, 192 kb/s (2 ch)


Скачать:Сэмпл

General
Complete name : C:INDIYAVeselaya.Semeyka.Snova.V.Dele.2013.P.HDRip.XviD-soso4eg.avi
Format : AVI
Format/Info : Audio Video Interleave
File size : 1.46 GiB
Duration : 2h 34mn
Overall bit rate : 1 353 Kbps
Movie name : Yamla.Pagla.Deewana-2.2013.HDRip.XviD-soso4eg
Director : soso4eg
Writing application : VirtualDubMod 1.5.10.2 (build 2540/release)
Original source form/Name : Hindi
Comment : пер. SDI Media

Video
ID : 0
Format : MPEG-4 Visual
Format profile : Advanced Simple@L5
Format settings, BVOP : 1
Format settings, QPel : No
Format settings, GMC : No warppoints
Format settings, Matrix : Default (MPEG)
Codec ID : XVID
Codec ID/Hint : XviD
Duration : 2h 34mn
Bit rate : 1 216 Kbps
Width : 688 pixels
Height : 288 pixels
Display aspect ratio : 2.40:1
Frame rate : 24.000 fps
Color space : YUV
Chroma subsampling : 4:2:0
Bit depth : 8 bits
Scan type : Progressive
Compression mode : Lossy
Bits/(Pixel*Frame) : 0.256
Stream size : 1.31 GiB (90%)
Writing library : XviD 1.2.1 (UTC 2008-12-04)

Audio
ID : 1
Format : MPEG Audio
Format version : Version 1
Format profile : Layer 3
Mode : Joint stereo
Mode extension : MS Stereo
Codec ID : 55
Codec ID/Hint : MP3
Duration : 2h 34mn
Bit rate mode : Constant
Bit rate : 128 Kbps
Channel(s) : 2 channels
Sampling rate : 48.0 KHz
Compression mode : Lossy
Stream size : 141 MiB (9%)
Alignment : Aligned on interleaves
Interleave, duration : 42 ms (1.00 video frame)
Interleave, preload duratio : 504 ms



_________________
Проголосуй за трекер Открытый торрент трекер - RUS-MEDIA.ORG

Проголосуй Открытый торрент трекер - RUS-MEDIA.ORG


Вернуться к началу
 Профиль Отправить личное сообщение  
 
   Похожие торренты   Автор   Торрент   Размер 
В этой теме нет новых непрочитанных сообщений. Семейка Фэнг / The Family Fang [драма, комедия, детектив, 2015] HDRip, Mvo

salma3

0 | 0

1.46 ГБ

В этой теме нет новых непрочитанных сообщений. Семейка Фэнг / The Family Fang [драма, комедия, детектив, 2015] WEB-DLRip, Mvo

salma3

76 | 9

1.44 ГБ

В этой теме нет новых непрочитанных сообщений. Семейка Фэнг / The Family Fang [драма, комедия, детектив, 2015] WEB-DL 720p, Mvo

salma3

35 | 8

2.77 ГБ

В этой теме нет новых непрочитанных сообщений. Семейка Тененбаум / The Royal Tenenbaums [драма, комедия, 2001] HDRip, Dvo [НТВ+]

salma3

66 | 20

1.45 ГБ

В этой теме нет новых непрочитанных сообщений. Шелли снова в деле / Wiener Dog Internationals [Семейный, 2015] WEB-DLRip, Mvo

salma3

57 | 19

1.46 ГБ

В этой теме нет новых непрочитанных сообщений. Парикмахерская 2: Снова в деле / Barbershop 2: Back in Business [драма, комедия, 2004] WEB-DL 1080p, Mvo

salma3

0 | 0

4.38 ГБ

В этой теме нет новых непрочитанных сообщений. В деле / В деле 90-х (Роман Половиков) [Боевик, 2015] WEBRip

Dracon

493 | 31

2.05 ГБ


Начать новую тему Ответить на тему  [ 1 сообщение ] 




Для Мосгорсуда, Роскомнадзора и рекламодателей:: mosgorsud-torrent[собачка]yandex.ru
cron