Торрент файл
скачать торрент магнет ссылка Добавлен: 29 июн 2015, 19:09
Размер: 1.45 ГБ
Сидеров: 1
Личеров: 2
Статус: (salma3)
Автор

СообщениеДобавлено: 29 июн 2015, 19:09 

Не в сети
Супермодератор
Аватара пользователя
Дата регистрации:
15 фев 2012, 16:44
Возраст: 28
Спасибо: 7163 / 2147
Сообщения: 61793
Год выхода: 2013
Жанр: Драма, триллер
Режиссер: В. К. Пракаш

В ролях: Маммутти, Ануп Менон, Джой Мэтью

Описание: Арвинд очень успешный юрист с хорошим послужным списком назначается судьей в один из штатов. С помощью свого близкого друга Нила, офицера полиции, он возобновляет следствие по одному старому убийству. Одновременно с этим Арвинд начинает получать анонимные звонки и угрозы от неизвестных людей и некоторые факты из прошлого Арвинда всплывают на поверхность...



Выпущено: Индия
Продолжительность: 01:52:38
Озвучивание: Профессиональный (многоголосый закадровый) - SDI Media (т/к Индия ТВ)

Файл
Формат: AVI (XviD)
Качество: DVDRip
Видео: 1640 kb/s, 720x304
Звук: AC3, 192 kb/s (2 ch)

Скачать:Сэмпл

General
Complete name : C:INDIYATishina.2013.P.DVDRip.XviD-soso4eg.avi
Format : AVI
Format/Info : Audio Video Interleave
File size : 1.45 GiB
Duration : 1h 52mn
Overall bit rate : 1 842 Kbps
Movie name : Silence.2013.Р.DVDRip.XviD-soso4eg
Director : soso4eg
Writing application : VirtualDubMod 1.5.10.2 (build 2540/release)
Original source form/Name : Malayalam
Comment : пер. SDI Media

Video
ID : 0
Format : MPEG-4 Visual
Format profile : Advanced Simple@L5
Format settings, BVOP : 1
Format settings, QPel : No
Format settings, GMC : No warppoints
Format settings, Matrix : Default (MPEG)
Codec ID : XVID
Codec ID/Hint : XviD
Duration : 1h 52mn
Bit rate : 1 641 Kbps
Width : 720 pixels
Height : 304 pixels
Display aspect ratio : 2.35:1
Frame rate : 23.976 fps
Color space : YUV
Chroma subsampling : 4:2:0
Bit depth : 8 bits
Scan type : Progressive
Compression mode : Lossy
Bits/(Pixel*Frame) : 0.313
Stream size : 1.29 GiB (89%)
Writing library : XviD 1.2.1 (UTC 2008-12-04)

Audio
ID : 1
Format : AC-3
Format/Info : Audio Coding 3
Mode extension : CM (complete main)
Format settings, Endianness : Big
Codec ID : 2000
Duration : 1h 52mn
Bit rate mode : Constant
Bit rate : 192 Kbps
Channel(s) : 2 channels
Channel positions : Front: L R
Sampling rate : 48.0 KHz
Bit depth : 16 bits
Compression mode : Lossy
Stream size : 155 MiB (10%)
Alignment : Split accross interleaves
Interleave, duration : 42 ms (1.00 video frame)
Interleave, preload duratio : 500 ms




_________________
Проголосуй за трекер Открытый торрент трекер - RUS-MEDIA.ORG

Проголосуй Открытый торрент трекер - RUS-MEDIA.ORG


Вернуться к началу
 Профиль Отправить личное сообщение  
 
   Похожие торренты   Автор   Торрент   Размер 
В этой теме нет новых непрочитанных сообщений. Лима: Сорвавшиеся с цепи / Lima: Breaking the Silence [Триллер, драма, криминал, 1999] DVDRip, Avo

salma3

11 | 4

1020.73 МБ

В этой теме нет новых непрочитанных сообщений. Радио-молчание / Radio Silence (Марко Ридль, Карстон Воух) [2015, Ужасы, триллер, BDRip] avo

Nickolas3435

723 | 17

1.34 ГБ

В этой теме нет новых непрочитанных сообщений. Тишина / Hush [ужасы, триллер, 2016] HDRip, Avo

salma3

277 | 7

1.33 ГБ

В этой теме нет новых непрочитанных сообщений. А потом тишина / Die Stille danach [Драма, 2016] HDTVRip, Avo

salma3

253 | 49

1.39 ГБ

В этой теме нет новых непрочитанных сообщений. Внутри тишины / Of Silence (Иеремия Сайс) [Ужасы, фантастика, триллер, драма, 2014] WEB-DLRip, dvo

Dracon

2 | 1

1.46 ГБ

В этой теме нет новых непрочитанных сообщений. Кодекс молчания / Code Of Silence [Боевик, триллер, 1985] BDRip 1080p, Mvo+Avo

salma3

17 | 10

11.16 ГБ

В этой теме нет новых непрочитанных сообщений. Молчание ягнят / The Silence of the Lambs [триллер, детектив, криминал, 1991] BDRip-AVC, Dub

salma3

0 | 0

2.91 ГБ


Начать новую тему Ответить на тему  [ 1 сообщение ] 




Для Мосгорсуда, Роскомнадзора и рекламодателей:: mosgorsud-torrent[собачка]yandex.ru
cron