Торрент файл
скачать торрент магнет ссылка Добавлен: 15 янв 2015, 21:46
Размер: 1.46 ГБ
Сидеров: 17
Личеров: 4
Статус: (salma3)
Автор

СообщениеДобавлено: 15 янв 2015, 21:46 

Не в сети
Супермодератор
Аватара пользователя
Дата регистрации:
15 фев 2012, 16:44
Возраст: 28
Спасибо: 6644 / 2146
Сообщения: 45958
Душа / Jaan

Год выхода: 1996
Жанр: Мелодрама, боевик
Режиссер: Радж Канвар / Raj Kanwar

В ролях: Аджай Девган, Твинкл Кханна, Амриш Пури, Ракхи Гульзар, Шакти Капур, Суреш Оберой, Вивек Мушран, Бинду, Аруна Ирани

О фильме:
Душещипательная история любви между телохранителем и его подопечной. Каран (Аджай Девган), призванный охранять Каджал (Твинкл Кханна), на самом деле нанят, для того чтобы убить ее. Но любовь меняет жестокие планы, и оружие наемного убийцы оборачивается против его заказчиков...



Страна: Индия
Продолжительность: 02:43:34
Перевод: Профессиональный (многоголосый закадровый) [Zee Tv]

Файл
Качество: DVDRip
Формат файла: AVI
Видео кодек: XviD
Аудио кодек: AC3
Видео: XviD build 50, 656x288 (2.28:1), 29.970 fps, 1071 kbps avg
Звук: AC3 Dolby Digital, 48 kHz, 2/0 (L,R) ch, 192 kbps

Семпл

General
Complete name : F:Dusha.1996.XviD.DVDRip.Oktober.avi
Format : AVI
Format/Info : Audio Video Interleave
File size : 1.46 GiB
Duration : 2h 43mn
Overall bit rate : 1 275 Kbps
Writing application : VirtualDubMod 1.5.10.2 (build 2540/release)
Writing library : VirtualDubMod build 2540/release

Video
ID : 0
Format : MPEG-4 Visual
Format profile : AdvancedSimple@L5
Format settings, BVOP : Yes
Format settings, QPel : No
Format settings, GMC : No warppoints
Format settings, Matrix : Default (H.263)
Codec ID : XVID
Codec ID/Hint : XviD
Duration : 2h 43mn
Bit rate : 1 071 Kbps
Width : 656 pixels
Height : 288 pixels
Display aspect ratio : 2.25
Frame rate : 29.970 fps
Resolution : 24 bits
Colorimetry : 4:2:0
Scan type : Progressive
Bits/(Pixel*Frame) : 0.189
Stream size : 1.22 GiB (84%)
Writing library : XviD 1.2.1 (UTC 2008-12-04)

Audio
ID : 1
Format : AC-3
Format/Info : Audio Coding 3
Codec ID : 2000
Duration : 2h 43mn
Bit rate mode : Constant
Bit rate : 192 Kbps
Channel(s) : 2 channels
Channel positions : L R
Sampling rate : 48.0 KHz
Stream size : 225 MiB (15%)
Alignment : Split accross interleaves
Interleave, duration : 33 ms (1.00 video frame)
Interleave, preload duration : 500 ms


Релиз от: Кинозал.ТВ


_________________
Проголосуй за трекер Открытый торрент трекер - RUS-MEDIA.ORG

Проголосуй Открытый торрент трекер - RUS-MEDIA.ORG



реклама партнёра


Вернуться к началу
 Профиль Отправить личное сообщение  
 
   Похожие торренты   Автор   Торрент   Размер 
В этой теме нет новых непрочитанных сообщений. Море / Морская душа / Kadal [драма, мелодрама, 2013] DVDRip, Mvo [SDI Media]

salma3

21 | 4

1.31 ГБ

В этой теме нет новых непрочитанных сообщений. Ранимая душа / Sensitive Parts (Брендан Прост / Brendan Prost) [2017г., Канада, драма, мелодрама, комедия, WEB-DLRip] MVO

Alfredovich

4 | 2

1.37 ГБ

В этой теме нет новых непрочитанных сообщений. Беглецы / Fled [боевик, драма, мелодрама, 1996] BDRip 720p, Dub

salma3

21 | 6

9.23 ГБ

В этой теме нет новых непрочитанных сообщений. Максимальный риск / Maximum Risk [Боевик, триллер, мелодрама, 1996] HDRip, Dub

salma3

7 | 1

746 МБ

В этой теме нет новых непрочитанных сообщений. Максимальный риск / Maximum Risk [боевик, триллер, мелодрама, 1996] BDRip 1080p, Dub

salma3

32 | 11

17.45 ГБ

В этой теме нет новых непрочитанных сообщений. Максимальный риск / Maximum Risk [боевик, триллер, мелодрама, 1996] BDRip 720p, Dub

salma3

17 | 3

6.23 ГБ

В этой теме нет новых непрочитанных сообщений. Мятеж / Riot [Боевик, 1996] DVDRip, Avo

salma3

30 | 0

1.45 ГБ


Начать новую тему Ответить на тему  [ 1 сообщение ] 




Для Мосгорсуда, Роскомнадзора и рекламодателей:: mosgorsud-torrent[собачка]yandex.ru