COVID-19 - Последняя информация о коронавирусе на сайте Минздрава




Торрент файл
скачать торрент магнет ссылка Добавлен: 15 июн 2020, 11:24
Размер: 3.71 ГБ
Сидеров: 3
Личеров: 0
Статус: (salma3)
Автор

СообщениеДобавлено: 15 июн 2020, 11:24 

Не в сети
Супермодератор
Аватара пользователя
Дата регистрации:
15 фев 2012, 16:44
Возраст: 30
Спасибо: 8263 / 2148
Сообщения: 96287
Год выхода: 1989
Жанр: Сказка, приключения, семейный
Режиссер: Леонид Нечаев

В ролях: Елена Антонова, Вячеслав Невинный, Регина Разума, Анатолий Рудаков, Лидия Федосеева-Шукшина, Альберт Филозов, Варвара Владимирова, Игорь Красавин, Светлана Селезнева, Артем Тынкасов, Александр Денисов

О фильме:
Ироническая музыкальная сказка о короле, принцессе, бродячих актерах и королевстве.
В результате заговора прежние король и королева погибли на охоте и на троне оказался любитель лошадей и глуповатый солдафон , а правит страной коварный канцлер со своей женой. В стране настали тяжелые времена: искусство в опале, тюрьмы полны, процветают торгаши и серость. У короля и королевы есть дочь - в принципе добрая , но сильно избалованная принцесса Альбина, в которую влюблен благородный немой поэт Патрик , воспитанник королевы. В замок попадает сундук бродячих музыкантов, где служанка находит волшебную голубую розу, заставляющую всех говорить правду… Наружу выходят секреты, о которых 16 лет запрещалось говорить под страхом смерти…



Страна: СССР
Продолжительность: 01:09:46 + 01:10:07
Перевод: Оригинал

Файл
Кодек: MKV
Качество: WEB-DL 1080p
Видео: MPEG-4 AVC, 1920x1080, 3670 Кбит/с
Звук: AC3, 2 ch, 128 Кбит/с - Русский

Общее
Уникальный идентификатор : 183829892628331762468320280654525299819 (0x8A4C59781664C61EF20C29A6E778FC6B)
Полное имя : D:Не покидай (1989)Не покидай. Серия 1.mkv
Формат : Matroska
Версия формата : Version 4
Размер файла : 1,88 Гбайт
Продолжительность : 1 ч. 9 м.
Общий поток : 3 866 Кбит/сек
Дата кодирования : UTC 2020-06-11 10:04:04
Программа кодирования : mkvmerge v47.0.0 ('Black Flag') 32-bit
Библиотека кодирования : libebml v1.3.10 + libmatroska v1.5.2 / Lavf57.71.100

Видео
Идентификатор : 1
Формат : AVC
Формат/Информация : Advanced Video Codec
Профиль формата : High@L4
Настройки формата : CABAC / 3 Ref Frames
Параметр CABAC формата : Да
Параметр RefFrames формата : 3 кадра
Идентификатор кодека : V_MPEG4/ISO/AVC
Продолжительность : 1 ч. 9 м.
Битрейт : 3 672 Кбит/сек
Ширина : 1 920 пикселей
Высота : 1 080 пикселей
Соотношение сторон : 16:9
Режим частоты кадров : Постоянный
Частота кадров : 25,000 кадров/сек
Цветовое пространство : YUV
Субдискретизация насыщенности : 4:2:0
Битовая глубина : 8 бит
Тип развёртки : Прогрессивная
Бит/(Пиксели*Кадры) : 0.071
Размер потока : 1,79 Гбайт (95%)
Default : Да
Forced : Нет
Цветовой диапазон : Limited
Основные цвета : BT.709
Характеристики трансфера : BT.709
Коэффициенты матрицы : BT.709

Аудио
Идентификатор : 2
Формат : AC-3
Формат/Информация : Audio Coding 3
Коммерческое название : Dolby Digital
Идентификатор кодека : A_AC3
Продолжительность : 1 ч. 9 м.
Вид битрейта : Постоянный
Битрейт : 192 Кбит/сек
Каналы : 2 канала
Channel layout : L R
Частота : 48,0 КГц
Частота кадров : 31,250 кадров/сек (1536 SPF)
Метод сжатия : С потерями
Размер потока : 95,8 Мбайт (5%)
Service kind : Complete Main
Default : Да
Forced : Нет

Общее
Уникальный идентификатор : 194390938913245420959522173949652069511 (0x923E55409B1887FB54BF165F17156C87)
Полное имя : D:Не покидай (1989)Не покидай. Серия 2.mkv
Формат : Matroska
Версия формата : Version 4
Размер файла : 1,83 Гбайт
Продолжительность : 1 ч. 10 м.
Общий поток : 3 736 Кбит/сек
Дата кодирования : UTC 2020-06-11 10:06:12
Программа кодирования : mkvmerge v47.0.0 ('Black Flag') 32-bit
Библиотека кодирования : libebml v1.3.10 + libmatroska v1.5.2 / Lavf57.71.100

Видео
Идентификатор : 1
Формат : AVC
Формат/Информация : Advanced Video Codec
Профиль формата : High@L4
Настройки формата : CABAC / 3 Ref Frames
Параметр CABAC формата : Да
Параметр RefFrames формата : 3 кадра
Идентификатор кодека : V_MPEG4/ISO/AVC
Продолжительность : 1 ч. 10 м.
Битрейт : 3 542 Кбит/сек
Ширина : 1 920 пикселей
Высота : 1 080 пикселей
Соотношение сторон : 16:9
Режим частоты кадров : Постоянный
Частота кадров : 25,000 кадров/сек
Цветовое пространство : YUV
Субдискретизация насыщенности : 4:2:0
Битовая глубина : 8 бит
Тип развёртки : Прогрессивная
Бит/(Пиксели*Кадры) : 0.068
Размер потока : 1,73 Гбайт (95%)
Default : Да
Forced : Нет
Цветовой диапазон : Limited
Основные цвета : BT.709
Характеристики трансфера : BT.709
Коэффициенты матрицы : BT.709

Аудио
Идентификатор : 2
Формат : AC-3
Формат/Информация : Audio Coding 3
Коммерческое название : Dolby Digital
Идентификатор кодека : A_AC3
Продолжительность : 1 ч. 10 м.
Вид битрейта : Постоянный
Битрейт : 192 Кбит/сек
Каналы : 2 канала
Channel layout : L R
Частота : 48,0 КГц
Частота кадров : 31,250 кадров/сек (1536 SPF)
Метод сжатия : С потерями
Размер потока : 96,3 Мбайт (5%)
Service kind : Complete Main
Default : Да
Forced : Нет




_________________
Проголосуй за трекер Открытый торрент трекер - RUS-MEDIA.ORG

Проголосуй Открытый торрент трекер - RUS-MEDIA.ORG


Скачать книги и аудио книги через торрент


Вернуться к началу
 Профиль Отправить личное сообщение  
 
   Похожие торренты   Автор   Торрент   Размер 
В этой теме нет новых непрочитанных сообщений. Семейный бизнес / Family Business [криминал, драма, 1989] WEB-DL 1080p, Mvo

salma3

0 | 0

13.18 ГБ

В этой теме нет новых непрочитанных сообщений. Дорогая, я уменьшил детей / Honey, I Shrunk the Kids [Комедия, приключения, семейный, 1989] Remux 1080p, Mvo

salma3

0 | 0

20.71 ГБ

В этой теме нет новых непрочитанных сообщений. Арабские приключения / Arabian Adventure [Сказка, приключения, семейный, 1979] WEBRip 720p, Dub

salma3

0 | 0

4.71 ГБ

В этой теме нет новых непрочитанных сообщений. Невероятные приключения янки в Африке / Yankee Zulu [Комедия, приключения, семейный, 1993] WEB-DL 1080p, Mvo

salma3

0 | 0

9.1 ГБ

В этой теме нет новых непрочитанных сообщений. Маша и медведь: Есть контакт! [65] [сказка, детский, семейный, 2017] WEB-DLRip

salma3

733 | 60

95.99 МБ

В этой теме нет новых непрочитанных сообщений. Маша и медведь: Есть контакт! [65] [сказка, детский, семейный, 2017] WEB-DL 720p

salma3

309 | 23

112.22 МБ

В этой теме нет новых непрочитанных сообщений. Парень из Голливуда, или Необыкновенные приключения Вени Везунчика [Комедия, приключения, семейный, 2018] WEB-DL 1080p [iTunes]

salma3

0 | 0

3.5 ГБ


СообщениеДобавлено: 21 июн 2020, 22:59 

Не в сети
Дата регистрации:
05 авг 2019, 06:17
Возраст: 34
Спасибо: 0 / 0
Сообщения: 1
Hot teen pics
http://emmawatsonnude.sexjanet.com/?mckayla
young porn gallery free fuck sex porn movies american dragon cartoon porn very young male porn porn businesses for sale


Скачать книги и аудио книги через торрент


Вернуться к началу
 Профиль Отправить личное сообщение  
 
Начать новую тему Ответить на тему  [ Сообщений: 2 ] 




Для Мосгорсуда, Роскомнадзора и рекламодателей:: rstracker[собака]yandex.ru
cron