Торрент файл
скачать торрент магнет ссылка Добавлен: 23 ноя 2019, 22:30
Размер: 3.9 ГБ
Сидеров: 3
Личеров: 0
Статус: (salma3)
Автор

СообщениеДобавлено: 23 ноя 2019, 22:30 

Не в сети
Супермодератор
Аватара пользователя
Дата регистрации:
15 фев 2012, 16:44
Возраст: 30
Спасибо: 8134 / 2148
Сообщения: 94991
Год выхода: 1967
Жанр: ужасы, фэнтези, драма
Режиссер: Георгий Кропачев, Константин Ершов

В ролях: Леонид Куравлёв, Наталья Варлей, Алексей Глазырин, Николай Кутузов, Вадим Захарченко, Петр Вескляров, Владимир Сальников, Дмитрий Капка, Степан Шкурат, Георгий Сочевко

О фильме:
Студент-философ Хома Брут должен провести несколько ночей у гроба умершей панночки в старой церквушке в далекой деревне. Сможет ли он побороть свой страх, или ему придется столкнуться с нечистой силой?



Страна: СССР
Продолжительность: 01:16:35
Перевод: Оригинальный
Субтитры: Русские, английские

Файл
Формат: MKV
Качество: BDRip 720p
Видео: x264, 984x718, ~6526 kbps, 23.976 fps, 0.385 bpp
Аудио#1: 48 kHz, FLAC, 2/0 (L,R) ch, ~300 kbps
Аудио#2: 48 kHz, AC3, 2/0 (L,R) ch, ~448 kbps
Формат субтитров: softsub (SRT)

***Релиз от: -=DoMiNo=-

» Фильм снят по одноименной повести Николая Гоголя.
» В фильме задействованы 50 ворон (пойманых в районе студии) и 9 дрессированных черных кошек.
» Александра Завьялова изначально утвержденная на роль Панночки, сразу после начала съемок тяжело заболела. В итоге будущий муж актрисы, режиссер Резо Эсадзе требовал, чтоб она отказалась от роли.
» Идея экранизации «Вия» принадлежит известному советскому режиссёру, на тот момент директору кинокомпании Мосфильм, Ивану Пырьеву. Лишь по причине острой нехватки времени он предложил снять картину двум учащимся Высших режиссерских курсов Союза кинематографистов СССР Георгию Кропачеву и Константину Ершову.
» Съемки фильм производились в Богородчанском районе Ивано-Франковской области (ныне Украина). Однако отснятый на натуре материал разочаровал руководство Мосфильма, оказавшись «слишком реалистическим». Так к работе было решено привлечь известного режиссёра кино-сказочника Александра Птушко. В результате, много материала отснятого Ершовым и Кропачевым было вырезано, ряд идей так и остались невоплощёнными. Изменён был и облик главного чудовища фильма — Вия.
» Первоначально на роль Хомы Брута планировался Михаил Кокшенов.
» «Полет» Ведьмы на Хоме был снят в павильоне. Шест, замаскированный под метлу с горизонтальной планкой, на которой сидел Николай Кутузов, крепился на небольшой высоте. Исполнитель роли Хомы Леонид Куравлёв повисал также на этой планке и перебирал в воздухе ногами, имитируя бег.
» В реквизите фильма было заготовлено три гроба Панночки. Один настоящий, для съемок лежащей в нем Натальи Варлей. Два других — для сцен полетов по церкви: небольшой и закрытый и открытый, со специальной стойкой, снабженной поясом монтажных рабочих удерживавшим актрису от падения, закрепленный в подвешенном состоянии на шести металлических тросах.
» Во время съемок полета, Наталья Варлей однажды выпала из гроба. Только реакция Леонида Куравлёва, успевшего подхватить актрису, спасла ее от травм. Тем не менее этот случай породил множественные слухи о смерти Варлей.
» По задумке Георгия Кропачева сам Вий должен был выглядеть более антропоморфно — гигантским немощным стариком, которого поддерживали всевозможные инфернальные существа.
» Петух, кукарекающий в фильме ранее был задействован Птушко при съемках фильма «Сказка о царе Салтане».
» Костюм Вия был очень тяжелый и никто из актеров не мог в нем нормально двигаться, поэтому эту роль пришлось сыграть специально приглашенному штангисту.
» Когда во время одной из финальных сцен героиня Натальи Варлей трясется от злости, актриса стоит на специальной вибрирующей платформе.
x264 info: frame I:587 Avg QP:16.94 size:123355
x264 info: frame P:19824 Avg QP:18.42 size: 72695
x264 info: frame B:89749 Avg QP:20.87 size: 24895
x264 info: consecutive B-frames: 0.8% 0.4% 2.4% 6.3% 8.1% 78.9% 1.9% 0.1% 0.1% 0.1% 0.0% 0.7% 0.3%
General
Format : Matroska
Format version : Version 4
File size : 3.90 GiB
Duration : 1 h 16 min
Overall bit rate mode : Variable
Overall bit rate : 7 284 kb/s
Movie name : Вий.(1984).BDRip.720p.US.tr.[-=DoMiNo=-]
Encoded date : UTC 2019-11-23 16:56:32
Writing application : mkvmerge v40.0.0 ('Old Town Road + Pony') 64-bit
Writing library : libebml v1.3.9 + libmatroska v1.5.2
Attachments : poster.jpg / poster 2.jpg

Video
ID : 1
Format : AVC
Format/Info : Advanced Video Codec
Format profile : High@L4.1
Format settings : CABAC / 11 Ref Frames
Format settings, CABAC : Yes
Format settings, Reference : 11 frames
Codec ID : V_MPEG4/ISO/AVC
Duration : 1 h 16 min
Bit rate : 6 526 kb/s
Width : 984 pixels
Height : 718 pixels
Display aspect ratio : 1.370
Frame rate mode : Constant
Frame rate : 23.976 (24000/1001) FPS
Color space : YUV
Chroma subsampling : 4:2:0
Bit depth : 8 bits
Scan type : Progressive
Bits/(Pixel*Frame) : 0.385
Stream size : 3.49 GiB (90%)
Title : RIP_BY_-=DoMiNo=-
Writing library : x264 core 157 r2958 57baac4
Encoding settings : cabac=1 / ref=11 / deblock=1:-2:-2 / analyse=0x3:0x133 / me=umh / subme=11 / psy=1 / psy_rd=1.00:0.00 / mixed_ref=1 / me_range=48 / chroma_me=1 / trellis=2 / 8x8dct=1 / cqm=0 / deadzone=21,11 / fast_pskip=1 / chroma_qp_offset=-2 / threads=6 / lookahead_threads=1 / sliced_threads=0 / nr=0 / decimate=1 / interlaced=0 / bluray_compat=0 / constrained_intra=0 / bframes=12 / b_pyramid=2 / b_adapt=2 / b_bias=0 / direct=1 / weightb=1 / open_gop=0 / weightp=2 / keyint=240 / keyint_min=24 / scenecut=40 / intra_refresh=0 / rc_lookahead=40 / rc=crf / mbtree=0 / crf=18.0 / qcomp=0.60 / qpmin=0 / qpmax=69 / qpstep=4 / vbv_maxrate=50000 / vbv_bufsize=62500 / crf_max=30.0 / nal_hrd=none / filler=0 / ip_ratio=1.40 / pb_ratio=1.30 / aq=2:0.90
Language : Russian
Default : Yes
Forced : No
Color range : Limited
Color primaries : BT.709
Transfer characteristics : BT.709
Matrix coefficients : BT.709

Audio #1
ID : 2
Format : FLAC
Format/Info : Free Lossless Audio Codec
Codec ID : A_FLAC
Duration : 1 h 16 min
Bit rate mode : Variable
Bit rate : 307 kb/s
Channel(s) : 2 channels
Channel layout : L R
Sampling rate : 48.0 kHz
Frame rate : 41.667 FPS (1152 SPF)
Bit depth : 16 bits
Compression mode : Lossless
Stream size : 168 MiB (4%)
Title : FLAC_[~300kb/s]
Writing library : ffmpeg
Language : Russian
Default : Yes
Forced : No

Audio #2
ID : 3
Format : AC-3
Format/Info : Audio Coding 3
Commercial name : Dolby Digital
Codec ID : A_AC3
Duration : 1 h 16 min
Bit rate mode : Constant
Bit rate : 448 kb/s
Channel(s) : 2 channels
Channel layout : L R
Sampling rate : 48.0 kHz
Frame rate : 31.250 FPS (1536 SPF)
Compression mode : Lossy
Stream size : 245 MiB (6%)
Title : AC-3_[~448kkb/s]
Language : Russian
Service kind : Complete Main
Default : No
Forced : No

Text #1
ID : 4
Format : UTF-8
Codec ID : S_TEXT/UTF8
Codec ID/Info : UTF-8 Plain Text
Duration : 1 h 14 min
Bit rate : 46 b/s
Count of elements : 471
Stream size : 25.3 KiB (0%)
Title : Мосфильм
Language : Russian
Default : No
Forced : No

Text #2
ID : 5
Format : UTF-8
Codec ID : S_TEXT/UTF8
Codec ID/Info : UTF-8 Plain Text
Duration : 1 h 15 min
Bit rate : 30 b/s
Count of elements : 472
Stream size : 17.0 KiB (0%)
Title : Severin Films
Language : English
Default : No
Forced : No

Text #3
ID : 6
Format : UTF-8
Codec ID : S_TEXT/UTF8
Codec ID/Info : UTF-8 Plain Text
Duration : 1 h 15 min
Bit rate : 47 b/s
Count of elements : 896
Stream size : 26.2 KiB (0%)
Title : Severin Films (SDH)
Language : English
Default : No
Forced : No

Menu
00:00:00.000 : :Титры / Начало каникул в семинарии
00:05:28.203 : :Поиски ночлега
00:12:04.306 : :Мистические приключения
00:15:27.885 : :Приказ ректора
00:18:38.992 : :В дороге
00:28:11.188 : :Последнее желание панночки
00:32:17.601 : :Прощание с покойной
00:39:10.054 : :Первая ночь в церкви
00:46:03.217 : :Наутро
00:50:07.168 : :Кошмары второй ночи
00:55:33.911 : :"Музыкантов! Непременно музыкантов!"
00:57:18.015 : :Разговор с паном сотником
01:01:36.315 : :Побег не удался...
01:05:55.699 : :Чертовщина третьей ночи
01:13:08.005 : :Эпилог. Поминание Хомы Брута


_________________
Проголосуй за трекер Открытый торрент трекер - RUS-MEDIA.ORG

Проголосуй Открытый торрент трекер - RUS-MEDIA.ORG


Скачать книги и аудио книги через торрент


Вернуться к началу
 Профиль Отправить личное сообщение  
 
   Похожие торренты   Автор   Торрент   Размер 
В этой теме нет новых непрочитанных сообщений. Вий [ужасы, фэнтези, драма, 1967] BDRip 1080p

salma3

14 | 0

9.82 ГБ

В этой теме нет новых непрочитанных сообщений. Грязная дюжина / The Dirty Dozen [Военный, драма, 1967] BDRip 720p, Dvo

salma3

0 | 0

8.89 ГБ

В этой теме нет новых непрочитанных сообщений. Искатели приключений / Les aventuriers [Драма, приключения, 1967] BDRip 720p, Dub

salma3

0 | 0

8.55 ГБ

В этой теме нет новых непрочитанных сообщений. Полуночная жара / In the Heat of the Night [Драма, криминал, детектив, 1967] BDRip 720p, Mvo

salma3

0 | 0

6.94 ГБ

В этой теме нет новых непрочитанных сообщений. Заключенный / The Prisoner [S01] [Фантастика, боевик, драма, 1967-1968] BDRip 720p, Dvo

salma3

0 | 0

33.4 ГБ

В этой теме нет новых непрочитанных сообщений. Суспирия / Suspiria [ужасы, фэнтези, драма, детектив, 1977] BDRip 720p, Mvo

salma3

57 | 28

7.91 ГБ

В этой теме нет новых непрочитанных сообщений. Впусти меня. Сага / Let Me In [ужасы, фэнтези, драма, 2010] BDRip 720p, Dub [iPad]

salma3

0 | 0

1.42 ГБ


Начать новую тему Ответить на тему  [ 1 сообщение ] 




Для Мосгорсуда, Роскомнадзора и рекламодателей:: mosgorsud-torrent[собачка]yandex.ru
cron