Торрент файл
скачать торрент магнет ссылка Добавлен: 28 июн 2019, 13:33
Размер: 1.09 ГБ
Сидеров: 1
Личеров: 3
Статус: (salma3)
Автор

СообщениеДобавлено: 28 июн 2019, 13:33 

Страна: СССР
Производство: Киностудия им. Горького

Жанр: комедия
Год выпуска: 1963
Продолжительность: 01:20:12

Перевод: Не требуется
Cубтитры: нет
Оригинальная аудиодорожка: русский

Режиссер: Иван Лукинский

В ролях:
Иван Воронов, Николай Гриценко, Виктор Чекмарёв, Станислав Хитров, Людмила Хитяева, Елена Понсова, Тамара Совчи, Виктор Петров, Владимир Муравьёв, Юрий Медведев, Марина Гаврилко, Евгения Мельникова...
Об актёрах подробней

Описание:
Товарищество на паях «Тонап», весьма умело организовав выпуск продуктов питания «похуже качеством, но побольше количеством», стало набирать мощь. Глава подпольной организации Христофоров, обеспокоенный сбытом левой продукции, разработал операцию по сближению с горпромсоветом: напросился на встречу, а к понедельнику приказал Стряпкову подыскать подарок.





Источник: WEB-DL 720p
Качество видео: WEB-DLRip-AVC
Формат видео: MKV

Видео: 768x576 (4:3), 25,000 кадров/сек, H264 ~ 1750 kbps avg, 0.158 bit/pixel
Аудио: 48 kHz, Dolby Digital AC3 2.0, 192 kbps

Раздача от:
Общее
Полное имя : Ponedelnik-den.tyazhelyy.1963.WEBDLRip-AVC_[New-team]_by_AVP_Studio.mkv
Формат : Matroska
Версия формата : Version 2
Размер файла : 1,09 Гбайт
Продолжительность : 1 ч. 20 м.
Общий поток : 1944 Кбит/сек
Дата кодирования : UTC 2019-06-27 14:13:27
Программа кодирования : mkvmerge v6.1.0 ('Old Devil') built on Mar 4 2013 09:10:42
Библиотека кодирования : libebml v1.3.0 + libmatroska v1.4.0

Видео
Идентификатор : 1
Формат : AVC
Формат/Информация : Advanced Video Codec
Профиль формата : High@L4.1
Настройки формата : CABAC / 10 Ref Frames
Параметр CABAC формата : Да
Параметр RefFrames формата : 10 кадров
Идентификатор кодека : V_MPEG4/ISO/AVC
Продолжительность : 1 ч. 20 м.
Битрейт : 1750 Кбит/сек
Ширина : 768 пикселей
Высота : 576 пикселей
Соотношение сторон : 4:3
Режим частоты кадров : Постоянный
Частота кадров : 25,000 кадров/сек
Цветовое пространство : YUV
Субдискретизация насыщенности : 4:2:0
Битовая глубина : 8 бит
Тип развёртки : Прогрессивная
Бит/(Пиксели*Кадры) : 0.158
Размер потока : 983 Мбайт (88%)
Библиотека кодирования : x264 core 157 r2932 303c484
Настройки программы : cabac=1 / ref=10 / deblock=1:-2:-1 / analyse=0x3:0x113 / me=umh / subme=10 / psy=1 / psy_rd=1.00:0.00 / mixed_ref=1 / me_range=32 / chroma_me=1 / trellis=2 / 8x8dct=1 / cqm=0 / deadzone=21,11 / fast_pskip=1 / chroma_qp_offset=-2 / threads=6 / lookahead_threads=1 / sliced_threads=0 / nr=0 / decimate=0 / interlaced=0 / bluray_compat=0 / constrained_intra=0 / bframes=8 / b_pyramid=2 / b_adapt=2 / b_bias=0 / direct=3 / weightb=1 / open_gop=0 / weightp=2 / keyint=250 / keyint_min=25 / scenecut=40 / intra_refresh=0 / rc=2pass / mbtree=0 / bitrate=1750 / ratetol=1.0 / qcomp=0.60 / qpmin=0 / qpmax=69 / qpstep=4 / cplxblur=20.0 / qblur=0.5 / ip_ratio=1.40 / pb_ratio=1.30 / aq=1:1.00
Default : Да
Forced : Нет

Аудио
Идентификатор : 2
Формат : AC-3
Формат/Информация : Audio Coding 3
Коммерческое название : Dolby Digital
Идентификатор кодека : A_AC3
Продолжительность : 1 ч. 20 м.
Вид битрейта : Постоянный
Битрейт : 192 Кбит/сек
Каналы : 2 канала
ChannelLayout : L R
Частота : 48,0 КГц
Частота кадров : 31,250 кадров/сек (1536 SPF)
Битовая глубина : 16 бит
Метод сжатия : С потерями
Размер потока : 110 Мбайт (10%)
Default : Да
Forced : Нет





Вернуться к началу
  
 
   Похожие торренты   Автор   Торрент   Размер 
В этой теме нет новых непрочитанных сообщений. СеняФедя [03х01] [Комедия, 2019] WEB-DLRip-AVC

salma3

2 | 0

319.13 МБ

В этой теме нет новых непрочитанных сообщений. Чокнутая / Re loca [Комедия, 2018] WEB-DLRip-AVC, Mvo

salma3

3 | 0

743.86 МБ

В этой теме нет новых непрочитанных сообщений. Контора / Head Office [комедия, 1985] WEB-DLRip-AVC, Mvo

salma3

0 | 0

2.19 ГБ

В этой теме нет новых непрочитанных сообщений. Ибица / Ibiza [Комедия, 2019] WEB-DLRip-AVC, Dub [iTunes]

salma3

2 | 3

706.27 МБ

В этой теме нет новых непрочитанных сообщений. Марафон желаний [Комедия, мелодрама, 2020] WEB-DLRip-AVC | iTunes

salma3

38 | 0

1.46 ГБ

В этой теме нет новых непрочитанных сообщений. Мышиная охота / Mousehunt [комедия, 1997] WEB-DLRip-AVC, Mvo

salma3

1 | 0

2.18 ГБ

В этой теме нет новых непрочитанных сообщений. Пересменка / Swing Shift [драма, комедия, 1984] WEB-DLRip-AVC, Mvo

salma3

1 | 0

744.25 МБ


Начать новую тему Ответить на тему  [ 1 сообщение ] 




Для Мосгорсуда, Роскомнадзора и рекламодателей:: rstracker[собака]yandex.ru
cron