Торрент файл
скачать торрент магнет ссылка Добавлен: 28 июн 2019, 13:32
Размер: 1.09 ГБ
Сидеров: 0
Личеров: 0
Статус: (salma3)
Автор

СообщениеДобавлено: 28 июн 2019, 13:32 

Страна: СССР
Производство: Киностудия им. Горького

Жанр: комедия
Год выпуска: 1963
Продолжительность: 01:20:12

Перевод: Не требуется
Cубтитры: нет
Оригинальная аудиодорожка: русский

Режиссер: Иван Лукинский

В ролях:
Иван Воронов, Николай Гриценко, Виктор Чекмарёв, Станислав Хитров, Людмила Хитяева, Елена Понсова, Тамара Совчи, Виктор Петров, Владимир Муравьёв, Юрий Медведев, Марина Гаврилко, Евгения Мельникова...
Об актёрах подробней

Описание:
Товарищество на паях «Тонап», весьма умело организовав выпуск продуктов питания «похуже качеством, но побольше количеством», стало набирать мощь. Глава подпольной организации Христофоров, обеспокоенный сбытом левой продукции, разработал операцию по сближению с горпромсоветом: напросился на встречу, а к понедельнику приказал Стряпкову подыскать подарок.





Источник: WEB-DL 720p
Качество видео: WEB-DLRip
Формат видео: AVI

Видео: 720х544 (4:3), 25 fps, XviD ~ 1744 kbps avg, 0.178 bit/pixel
Аудио: 48 kHz, Dolby Digital AC3 2.0, 192 kbps

Раздача от:
Общее
Полное имя : Ponedelnik-den.tyazhelyy.1963.WEBDLRip_[New-team]_by_AVP_Studio.avi
Формат : AVI
Формат/Информация : Audio Video Interleave
Размер файла : 1,09 Гбайт
Продолжительность : 1 ч. 20 м.
Общий поток : 1945 Кбит/сек
Программа кодирования : VirtualDubMod 1.5.10.3 | http://www.virtualdub-fr.org || (build 2550/release)
Библиотека кодирования : VirtualDubMod build 2550/release

Видео
Идентификатор : 0
Формат : MPEG-4 Visual
Профиль формата : Advanced Simple@L5
Настройки формата : BVOP1 / Custom Matrix
Параметр BVOP формата : 1
Параметр QPel формата : Нет
Параметр GMC формата : Без точки перехода
Параметр матрицы формата : Выборочная
Идентификатор кодека : XVID
Идентификатор кодека/Подсказка : XviD
Продолжительность : 1 ч. 20 м.
Битрейт : 1744 Кбит/сек
Ширина : 720 пикселей
Высота : 544 пикселя
Соотношение сторон : 4:3
Частота кадров : 25,000 кадров/сек
Цветовое пространство : YUV
Субдискретизация насыщенности : 4:2:0
Битовая глубина : 8 бит
Тип развёртки : Прогрессивная
Метод сжатия : С потерями
Бит/(Пиксели*Кадры) : 0.178
Размер потока : 1000 Мбайт (90%)
Библиотека кодирования : XviD 73

Аудио
Идентификатор : 1
Формат : AC-3
Формат/Информация : Audio Coding 3
Коммерческое название : Dolby Digital
Идентификатор кодека : 2000
Продолжительность : 1 ч. 20 м.
Вид битрейта : Постоянный
Битрейт : 192 Кбит/сек
Каналы : 2 канала
ChannelLayout : L R
Частота : 48,0 КГц
Частота кадров : 31,250 кадров/сек (1536 SPF)
Битовая глубина : 16 бит
Метод сжатия : С потерями
Размер потока : 110 Мбайт (10%)
Выравнивание : Разделение по промежуткам
Продолжительность промежутка : 40 мс. (1,00 видеокадр)
Время предзагрузки промежутка : 500 мс.





Вернуться к началу
  
 
   Похожие торренты   Автор   Торрент   Размер 
В этой теме нет новых непрочитанных сообщений. Понедельник - день тяжелый [комедия, 1963] WEB-DLRip-AVC

NTL

1 | 1

1.09 ГБ

В этой теме нет новых непрочитанных сообщений. Глубже! [Комедия, 2020] WEB-DLRip [iTunes]

salma3

506 | 19

1.46 ГБ

В этой теме нет новых непрочитанных сообщений. Её мужчины [01-04 из 04] [Комедия, мелодрама, 2019] WEB-DLRip

salma3

0 | 0

2.74 ГБ

В этой теме нет новых непрочитанных сообщений. Беглецы [Комедия, 2017] WEB-DLRip [iTunes]

salma3

27 | 9

1.46 ГБ

В этой теме нет новых непрочитанных сообщений. Дар [комедия, 2018] WEB-DLRip [iTunes]

OLEG270877

14 | 3

1.46 ГБ

В этой теме нет новых непрочитанных сообщений. Жара [Комедия, 2019] WEB-DLRip [iTunes]

salma3

75 | 2

1.37 ГБ

В этой теме нет новых непрочитанных сообщений. Волшебник [Комедия, драма, 2019] WEB-DLRip

salma3

0 | 0

1.46 ГБ


Начать новую тему Ответить на тему  [ 1 сообщение ] 




Для Мосгорсуда, Роскомнадзора и рекламодателей:: rstracker[собака]yandex.ru
cron