COVID-19 - Последняя информация о коронавирусе на сайте Минздрава




Торрент файл
скачать торрент магнет ссылка Добавлен: 23 июн 2019, 13:13
Размер: 1.09 ГБ
Сидеров: 15
Личеров: 2
Статус: (salma3)
Автор

СообщениеДобавлено: 23 июн 2019, 13:13 

Не в сети
Супермодератор
Аватара пользователя
Дата регистрации:
15 фев 2012, 16:44
Возраст: 31
Спасибо: 8273 / 2148
Сообщения: 96473
Год выхода: 1967
Жанр: Комедия, приключения, семейный
Режиссер: Павел Арсенов

В ролях: Андрей Ушаков, Леня Карасев, Олег Ефремов, Валерий Носик, Георгий Вицин, Александр Ширвиндт, Алексей Смирнов, Екатерина Васильева, Михаил Державин, Рудольф Панков, Виктор Кулаков, Егор Дьяков, Валентин Брылеев, Татьяна Гаврилова, Светлана Харитонова

О фильме:
Пионер Андрей Васильков и его друг Гулька, воодушевленные лозунгом «ни одной жертвы стихии водной, спасти человека наш долг благородный», разыгрывают несчастный случай на воде перед группой иностранных туристов. Свидетелем этого случайно становится юный корреспондент Егор Подушкин, который с большим энтузиазмом начинает раскручивать эту ситуацию. И вот уже портреты «героя» висят по всему городу, его ждут в трудовых коллективах и на радио, про него даже сняли фильм и теперь, когда друзья решили дать задний ход, выяснилось, что это очень непросто. Ведь через пару дней в городе водный праздник, уже «выписана» медаль «За спасение утопающих» и торжественное награждение должно состояться при любой «погоде»…



Страна: СССР
Продолжительность: 01:06:05
Перевод: Русский

Файл
Кодек: DivX
Качество: DVDRip
Видео: 720x304 (2.37:1), 25 fps, DivX Codec 5.x or 6.x ~2133 kbps avg
Звук: 48 kHz, AC3 Dolby Digital, 2/0 (L,R) ch, ~224.00 kbps avg


General
Complete name : Spasite.utopayushego.1967.DivX.DVDRip.avi
Format : AVI
Format/Info : Audio Video Interleave
File size : 1.09 GiB
Duration : 1 h 6 min
Overall bit rate : 2 367 kb/s
Writing application : VirtualDubModRus 1.5.10.2 (build 2542/release)
Writing library : VirtualDubMod build 2542/release

Video
ID : 0
Format : MPEG-4 Visual
Format settings, BVOP : Yes
Format settings, QPel : No
Format settings, GMC : No warppoints
Format settings, Matrix : Default (H.263)
Codec ID : DX50
Codec ID/Hint : DivX 5
Duration : 1 h 6 min
Bit rate : 2 134 kb/s
Nominal bit rate : 4 854 kb/s
Width : 720 pixels
Height : 304 pixels
Display aspect ratio : 2.35:1
Frame rate : 25.000 FPS
Color space : YUV
Chroma subsampling : 4:2:0
Bit depth : 8 bits
Scan type : Progressive
Compression mode : Lossy
Bits/(Pixel*Frame) : 0.390
Stream size : 1 009 MiB (90%)
Writing library : DivX 6.8.3-6.8.4 (UTC 2008-06-07)

Audio
ID : 1
Format : AC-3
Format/Info : Audio Coding 3
Mode extension : CM (complete main)
Format settings, Endianness : Big
Codec ID : 2000
Duration : 1 h 6 min
Bit rate mode : Constant
Bit rate : 224 kb/s
Channel(s) : 2 channels
Channel positions : Front: L R
Sampling rate : 48.0 kHz
Frame rate : 31.250 FPS (1536 spf)
Bit depth : 16 bits
Compression mode : Lossy
Stream size : 106 MiB (9%)
Alignment : Aligned on interleaves
Interleave, duration : 40 ms (1.00 video frame)
Interleave, preload duration : 512 ms



_________________
Проголосуй за трекер Открытый торрент трекер - RUS-MEDIA.ORG

Проголосуй Открытый торрент трекер - RUS-MEDIA.ORG


Скачать книги и аудио книги через торрент


Вернуться к началу
 Профиль Отправить личное сообщение  
 
   Похожие торренты   Автор   Торрент   Размер 
В этой теме нет новых непрочитанных сообщений. Пояс целомудрия / La cintura di castità [мелодрама, комедия, приключения, 1967] DVDRip, Avo

salma3

48 | 1

1.46 ГБ

В этой теме нет новых непрочитанных сообщений. Беспощаднее мужчин / Deadlier Than the Male [Приключения, комедия, 1967] BDRip 720p, Dvo

salma3

0 | 0

5.06 ГБ

В этой теме нет новых непрочитанных сообщений. Спасите Грейс / Saving Grace [Комедия, криминал, 2000] BDRip 720p, Mvo

salma3

0 | 0

7.41 ГБ

В этой теме нет новых непрочитанных сообщений. Спасите Грейс / Saving Grace [Комедия, криминал, 2000] BDRemux 1080p, Mvo

salma3

0 | 0

16.08 ГБ

В этой теме нет новых непрочитанных сообщений. Вампирёныш / The Little Vampire [Комедия, приключения, семейный, 2000] DVDRip-AVC, Dub

salma3

0 | 8

2.01 ГБ

В этой теме нет новых непрочитанных сообщений. Дом с деньгами / Цветок щавеля / Fleur d'oseille [драма, комедия, криминал, 1967] DVDRip, Avo

salma3

0 | 0

1.36 ГБ

В этой теме нет новых непрочитанных сообщений. Дом с деньгами / Цветок щавеля / Fleur d'oseille [драма, комедия, криминал, 1967] DVDRip-AVC, Avo

salma3

0 | 0

2.16 ГБ


Начать новую тему Ответить на тему  [ 1 сообщение ] 




Для Мосгорсуда, Роскомнадзора и рекламодателей:: rstracker[собака]yandex.ru
cron