Оценка торрента
5 0%  0%  [ 0 ]
4 0%  0%  [ 0 ]
3 0%  0%  [ 0 ]
2 0%  0%  [ 0 ]
1 0%  0%  [ 0 ]
5 0%  0%  [ 0 ]
4 0%  0%  [ 0 ]
3 0%  0%  [ 0 ]
2 0%  0%  [ 0 ]
1 0%  0%  [ 0 ]
Всего голосов : 0
Торрент файл
скачать торрент магнет ссылка Добавлен: 09 май 2011, 10:53
Размер: 1.45 ГБ
Сидеров: 12
Личеров: 6
Статус: (Aleksandr.ru)
Автор

СообщениеДобавлено: 09 май 2011, 10:53 

Не в сети
Супермодератор
Аватара пользователя
Дата регистрации:
22 май 2010, 12:40
Спасибо: 2027 / 98
Сообщения: 2963
Откуда: Н.Новгород
Два бойца /1943/ DVDRip AVC



Информация о фильме:

Название: Два бойца
Оригинальное название: Two Soldiers
Год выхода: 1943
Жанр:Военный / Мелодрама / Драма

Режиссер: Леонид Луков
В ролях: Борис Андреев (...Саша Свинцов), Марк Бернес (...Аркадий Дзюбин), Эммануил Геллер, Янина Жеймо, Лаврентий Масоха, Вера Шершнева (...Тася), Иван Кузнецов, Максим Штраух, Степан Крылов, Андрей Сова...

Описание: Фильм снят во время войны по повести Льва Славина «Мои земляки». Искренний и правдивый рассказ о дружбе Аркадия Дзюбина, неунывающего, лихого и бедового парня из Одессы, и Саши Свинцова — «Саши с Уралмаша».

Страна:
Выпущено: Ташкентская к/ст
Продолжительность: 01:14:57
Язык: Русский

Качество: DVDRip AVC
Аудио: Dolby AC3, 48000Hz, 192 Kbps, 2 channels
Видео: MPEG4 Video (H264) 676x564 (4:3) 25.00fps

Скачать сэмпл / 41MB / 00:02:05 /

General
Два бойца (1943)Dva boytsa (1943) DVDRip AVC.mkv
Format: Matroska
File size: 1.45 GiB
Duration: 1h 14mn
Overall bit rate: 2 773 Kbps
Encoded date: UTC 2009-12-08 13:22:01
Writing application: mkvmerge v2.4.1 ('Use Me') built on Dec5 2008 15:43:32
Writing library: libebml v0.7.7 + libmatroska v0.8.1

Video
ID: 1
Format: AVC
Format/Info: Advanced Video Codec
Format profile: Main@L4.0
Format settings, CABAC: Yes
Format settings, ReFrames: 2 frames
Muxing mode: Container profile=Unknown@4.0
Codec ID: V_MPEG4/ISO/AVC
Duration: 1h 14mn
Bit rate: 2 526 Kbps
Nominal bit rate: 2 570 Kbps
Width: 676 pixels
Height: 564 pixels
Display aspect ratio: 4:3
Original display aspect ratio: 1.199
Frame rate: 25.000 fps
Resolution: 24 bits
Colorimetry: 4:2:0
Scan type: Progressive
Bits/(Pixel*Frame): 0.265
Stream size: 1.32 GiB (91%)
Title: Два бойца (1943) DVD5
Writing library: x264 core 66 r1092 60f4cd8
Encoding settings: cabac=1 / ref=1 / deblock=0:0:0 / analyse=0x1:0x111 / me=dia / subme=2 / psy_rd=0.0:0.0 / mixed_ref=0 / me_range=8 / chroma_me=0 / trellis=0 / 8x8dct=0 / cqm=0 / deadzone=21,11 / chroma_qp_offset=0 / threads=3 / nr=0 / decimate=1 / mbaff=0 / bframes=2 / b_pyramid=0 / b_adapt=0 / b_bias=0 / direct=1 / wpredb=0 / keyint=250 / keyint_min=25 / scenecut=40(pre) / rc=cbr / bitrate=2570 / ratetol=1.0 / qcomp=0.60 / qpmin=10 / qpmax=51 / qpstep=4 / vbv_maxrate=25000 / vbv_bufsize=14000 / ip_ratio=1.40 / pb_ratio=1.30 / aq=1:1.00

Audio
ID: 2
Format: AC-3
Format/Info: Audio Coding 3
Codec ID: A_AC3
Duration: 1h 14mn
Bit rate mode: Constant
Bit rate: 192 Kbps
Channel(s): 2 channels
Channel positions: L R
Sampling rate: 48.0 KHz
Stream size: 103 MiB (7%)
Language: Russian




















реклама партнёра


Вернуться к началу
 Профиль Отправить личное сообщение  
 
   Похожие торренты   Автор   Торрент   Размер 
В этой теме нет новых непрочитанных сообщений. Ночь бойца / Night of the Warrior [Боевик, спорт, 1991] DVDRip, Avo

salma3

17 | 1

1.36 ГБ

В этой теме нет новых непрочитанных сообщений. Фронт (Георгий Васильев, Сергей Васильев) [1943, драма, военный, DVDRip-AVC]

Nickolas3435

18 | 7

1.46 ГБ

В этой теме нет новых непрочитанных сообщений. Dexxxter 2009 DVDRip

Max79

178 | 50

700.35 МБ

В этой теме нет новых непрочитанных сообщений. Там / Out There [Комедия, 1995] DVDRip, Avo

salma3

4 | 2

700.04 МБ

В этой теме нет новых непрочитанных сообщений. All About Ass 2 / Всё O Заднице 2 (2016) DVDRip

Dile-1

0 | 1

2.78 ГБ

В этой теме нет новых непрочитанных сообщений. А как же Боб? / What About Bob? [комедия, 1991] DVDRip, Mvo+Avo

salma3

89 | 5

1.46 ГБ

В этой теме нет новых непрочитанных сообщений. 4 Men In Me / 4 Мужчины Bо Mне (2007) DVDRip

Dile-1

1 | 0

888.81 МБ


Начать новую тему Ответить на тему  [ 1 сообщение ] 




Для Мосгорсуда, Роскомнадзора и рекламодателей:: mosgorsud-torrent[собачка]yandex.ru