COVID-19 - Последняя информация о коронавирусе на сайте Минздрава




Торрент файл
скачать торрент магнет ссылка Добавлен: 15 авг 2018, 11:04
Размер: 2.03 ГБ
Сидеров: 0
Личеров: 1
Статус: (salma3)
Автор

СообщениеДобавлено: 15 авг 2018, 11:04 

Не в сети
Супермодератор
Аватара пользователя
Дата регистрации:
15 фев 2012, 16:44
Возраст: 32
Спасибо: 8298 / 2148
Сообщения: 97020
Год выпуска: 1979
Жанр: Драма
Страна:СССР
Продолжительность: 01:04:30 + 01:05:53
Режиссер: Евгений Матвеев
В ролях: Евгений Матвеев, Валерия Заклунная, Людмила Гурченко, Николай Крючков, Владимир Самойлов, Петр Чернов, Геннадий Юхтин, Евгений Киндинов, Евгений Лазарев, Лев Борисов, Александр Парра, Фархад Исраилов, Олег Измайлов, Светлана Коновалова, Сергей Иванов

Описание: 1940 год. Одному из авиационных заводов поручается в чрезвычайно сжатые сроки наладить выпуск штурмовика ИЛ-2. Выпустив с конвейера первый самолет, начальник производства Кириллов отправляется с женой на полуостров. Здесь их и застает война... Вернувшись домой, они узнают, что завод получил задание эвакуировать кадры и все оборудование за Волгу, а там, ни на минуту не останавливая производство самолетов, буквально на пустом месте построить новый завод...

Первый фильм, которому была устроена Всесоюзная премьера.
Прообразом для сюжета фильма стал авиационный завод № 18, эвакуированный в 1941 из Воронежа в Куйбышев и там в кратчайшие сроки развернувший серийный выпуск штурмовиков Ил-2.

Релиз от:

Кодек: х264
Качество: DVDRip-AVC
Видео: MPEG-4 AVC, 664x546@708x546, 698x566@744x566 25 fps, 2100 Кбит/с
Звук: AC3, 2 ch, 192 Кбит/с


Общее
Уникальный идентификатор : 234138121458043998471770773121461407972 (0xB0255CA70AD00723A2BEB09A32DC50E4)
Полное имя : D:Особо важное задание_1979-DVDRip-AVC_KORSARОсобо важное задание-1.mkv
Формат : Matroska
Версия формата : Version 2
Размер файла : 1,05 Гбайт
Продолжительность : 1 ч. 4 м.
Общий поток : 2327 Кбит/сек
Дата кодирования : UTC 2018-05-13 00:07:22
Программа кодирования : mkvmerge v5.8.0 ('No Sleep / Pillow') built on Sep 2 2012 15:37:04
Библиотека кодирования : libebml v1.2.3 + libmatroska v1.3.0

Видео
Идентификатор : 1
Формат : AVC
Формат/Информация : Advanced Video Codec
Профиль формата : High@L4.1
Параметр CABAC формата : Да
Параметр RefFrames формата : 14 кадров
Идентификатор кодека : V_MPEG4/ISO/AVC
Продолжительность : 1 ч. 4 м.
Битрейт : 2089 Кбит/сек
Ширина : 664 пикселя
Высота : 546 пикселей
Соотношение сторон : 1,297
Режим частоты кадров : Постоянный
Частота кадров : 25,000 кадров/сек
Цветовое пространство : YUV
Субдискретизация насыщенности : 4:2:0
Битовая глубина : 8 бит
Тип развёртки : Прогрессивная
Бит/(Пиксели*Кадры) : 0.230
Размер потока : 964 Мбайт (90%)
Библиотека кодирования : x264 core 152 r2851kMod ba24899
Настройки программы : cabac=1 / ref=14 / deblock=1:-2:-1 / analyse=0x3:0x133 / me=umh / subme=10 / psy=1 / fade_compensate=0.00 / psy_rd=1.05:0.10 / mixed_ref=1 / me_range=32 / chroma_me=1 / trellis=2 / 8x8dct=1 / cqm=0 / deadzone=21,11 / fast_pskip=1 / chroma_qp_offset=-3 / threads=12 / lookahead_threads=2 / sliced_threads=0 / nr=0 / decimate=1 / interlaced=0 / bluray_compat=0 / constrained_intra=0 / bframes=8 / b_pyramid=2 / b_adapt=2 / b_bias=0 / direct=1 / weightb=1 / open_gop=0 / weightp=2 / keyint=250 / keyint_min=25 / scenecut=40 / intra_refresh=0 / rc=crf / mbtree=0 / crf=18.0000 / qcomp=0.63 / qpmin=0 / qpmax=39 / qpstep=4 / ip_ratio=1.40 / pb_ratio=1.30 / aq=1:0.90
Язык : English
Default : Да
Forced : Нет
Цветовой диапазон : Limited
Основные цвета : BT.601 PAL
Характеристики трансфера : BT.470 System B, BT.470 System G
Коэффициенты матрицы : BT.601

Аудио
Идентификатор : 2
Формат : AC-3
Формат/Информация : Audio Coding 3
Параметр Endianness формата : Big
Идентификатор кодека : A_AC3
Продолжительность : 1 ч. 4 м.
Вид битрейта : Постоянный
Битрейт : 192 Кбит/сек
Каналы : 2 канала
Расположение каналов : Front: L R
Частота : 48,0 КГц
Частота кадров : 31,250 кадров/сек (1536 SPF)
Битовая глубина : 16 бит
Метод сжатия : С потерями
Размер потока : 88,6 Мбайт (8%)
Язык : Russian
Default : Да
Forced : Нет



_________________
Проголосуй за трекер Открытый торрент трекер - RUS-MEDIA.ORG

Проголосуй Открытый торрент трекер - RUS-MEDIA.ORG


Скачать книги и аудио книги через торрент


Вернуться к началу
 Профиль Отправить личное сообщение  
 
   Похожие торренты   Автор   Торрент   Размер 
В этой теме нет новых непрочитанных сообщений. Война полиций / La guerre des polices [драма, криминал, 1979] DVDRip-AVC, Mvo

salma3

0 | 0

1.74 ГБ

В этой теме нет новых непрочитанных сообщений. Янки / Yanks [Мелодрама, драма, военный, 1979] WEB-DLRip-AVC, Mvo [НТВ+]

salma3

0 | 0

2.78 ГБ

В этой теме нет новых непрочитанных сообщений. Удар головой / Coup de tête [драма, комедия, спорт, 1979] BDRip-AVC, Mvo

salma3

0 | 0

2.22 ГБ

В этой теме нет новых непрочитанных сообщений. Дама в красном / The Lady in Red [Боевик, Драма, Мелодрама, 1979] WEB-DLRip-AVC, Avo

salma3

1 | 0

2.18 ГБ

В этой теме нет новых непрочитанных сообщений. Фрикадельки / Meatballs [комедия, 1979] BDRip-AVC, Mvo

salma3

0 | 0

2.91 ГБ

В этой теме нет новых непрочитанных сообщений. Особо опасны / Savages [Триллер, драма, криминал, 2012] BDRip 720p, Dub [Расширенная версия]

salma3

0 | 0

9.72 ГБ

В этой теме нет новых непрочитанных сообщений. Ночи на бульваре / Boulevard Nights [драма, криминал, 1979] DVDRip, Avo

salma3

0 | 0

1.41 ГБ


Начать новую тему Ответить на тему  [ 1 сообщение ] 




Для Мосгорсуда, Роскомнадзора и рекламодателей:: rstracker[собака]yandex.ru
cron